Grateful Dead 05/17/78
Uptown Theater, Chicago, IL
Source Summary
flac16; Recording Info:SBD -> Cassette Master -> Dat -> CD; Transfer Info:CD -> Samplitude Professional v10.1 -> FLAC; All Transfers and Mastering By Charlie Miller
Grateful Dead - May 17, 1978
Uptown Theatre - Chicago, IL

Recording Info:
SBD -> Cassette Master -> Dat -> CD

Transfer Info:
CD -> Samplitude Professional v10.1 -> FLAC
(3 Discs Audio / 2 Discs FLAC)

All Transfers and Mastering By Charlie Miller
charliemiller87@earthlink.net
July 22, 2008

Patch Info:
AKG D202E -> Cassette Master -> Reel -> Dat -> CD (shnid=8334) supplies:
Samson And Delilah (complete track)
Friend Of The Devil (complete track)
Drums (13:32 - 13:44)

Notes:
-- Set 2 is seamless
-- Thanks to Paul Scotton for the source discs

Set 1:
d1t01 - Mississippi Half-Step Uptown Toodeloo ->
d1t02 - Franklin's Tower
d1t03 - Me And My Uncle ->
d1t04 - Big River
d1t05 - It Must Have Been The Roses
d1t06 - Looks Like Rain
d1t07 - Tennessee Jed
d1t08 - Funiculi Funicula
d1t09 - Lazy Lightnin' ->
d1t10 - Supplication

Set 2:
d2t01 - Samson And Delilah
d2t02 - Friend Of The Devil
d2t03 - Dancing In The Street ->
d2t04 - Drums ->
d3t01 - Space ->
d3t02 - Terrapin Station ->
d3t03 - Not Fade Away ->
d3t04 - Around And Around

Encore:
d3t05 - Werewolves Of London


SHNTOOL OUTPUT:
    length     expanded size   cdr  WAVE problems filename
     9:15.34       97982012    ---   --   -----   gd78-05-17d1t01.wav
    14:47.04      156476252    ---   --   -----   gd78-05-17d1t02.wav
     3:02.10       32128364    ---   --   -----   gd78-05-17d1t03.wav
     6:05.34       64466012    ---   --   -----   gd78-05-17d1t04.wav
     6:58.15       73770524    ---   --   -----   gd78-05-17d1t05.wav
     9:09.58       96980060    ---   --   -----   gd78-05-17d1t06.wav
     9:23.21       99362636    ---   --   -----   gd78-05-17d1t07.wav
     2:16.30       24061004    ---   --   -----   gd78-05-17d1t08.wav
     3:19.06       35117756    ---   --   -----   gd78-05-17d1t09.wav
     6:56.45       73488284    ---   --   -----   gd78-05-17d1t10.wav
     7:20.19       77660732    ---   --   -----   gd78-05-17d2t01.wav
    10:03.59      106508012    ---   --   -----   gd78-05-17d2t02.wav
    14:35.54      154477052    ---   --   -----   gd78-05-17d2t03.wav
    14:58.15      158442524    ---   --   -----   gd78-05-17d2t04.wav
     4:52.43       51609980    ---   --   -----   gd78-05-17d3t01.wav
    10:57.68      116054780    ---   --   -----   gd78-05-17d3t02.wav
    13:53.25      147000044    ---   --   -----   gd78-05-17d3t03.wav
     9:33.62      101223068    ---   --   -----   gd78-05-17d3t04.wav
     7:34.55       80215004    ---   --   -----   gd78-05-17d3t05.wav
   165:03.57     1747024100 B                     (totals for 19 files)
ffp
gd78-05-17d1t01.flac:c2abab89f2599584ebae78091033dcc3
gd78-05-17d1t02.flac:bd685b79b8df8ca33e399c718a29cf14
gd78-05-17d1t03.flac:9a0424a27d486148d129a400b238b106
gd78-05-17d1t04.flac:7943030244499d9651faade987aabece
gd78-05-17d1t05.flac:70d92571e3837bfcc19c0eba9e459cea
gd78-05-17d1t06.flac:125436556bf2246d91de849bb4e478b1
gd78-05-17d1t07.flac:0770a069891b51d2c7834a6e69dea9ca
gd78-05-17d1t08.flac:08a51c919f47932dceccdcc7bd49ab42
gd78-05-17d1t09.flac:04782f867d72f125fc0b1f3d5fe2b9a2
gd78-05-17d1t10.flac:a748ef82459791b76a82ce21366ee212
gd78-05-17d2t01.flac:9a2b2852778c332df24b45d01c72aad4
gd78-05-17d2t02.flac:9702f485eb99723f09b3c9b2ff5ba645
gd78-05-17d2t03.flac:bf9c4db4fc4773b72c8668eead594c98
gd78-05-17d2t04.flac:06ea1b75beadc07d1c5d49c2567b12f6
gd78-05-17d3t01.flac:47634c47d51f13a8d1d0b8ce94f7022f
gd78-05-17d3t02.flac:2f2de59de1c5d193bf2f4b3d22cb6a1e
gd78-05-17d3t03.flac:37254c99c9ddd2cd28e6033de84525e0
gd78-05-17d3t04.flac:d565be69ee4580923caa9cbb5a0fd2bb
gd78-05-17d3t05.flac:fd5976762913b5753a324517a5b6e556
0440dc47da534db1e49fb26e15e055c5 *gd78-05-17d1t01.flac
ff3abfd568cf21240e0947c9b7fd2db4 *gd78-05-17d1t02.flac
793e75a7864bcbd34045c5931582acdc *gd78-05-17d1t03.flac
e44e85982c589200f06910238a16fdc2 *gd78-05-17d1t04.flac
717850a76ec00f32a134dd85b20e39ce *gd78-05-17d1t05.flac
d801d69c3d4cd3d5c688630565a79883 *gd78-05-17d1t06.flac
11bed45c90539c569c4349eea3a39782 *gd78-05-17d1t07.flac
ba981bed309af6d684b5e9498c7fa00d *gd78-05-17d1t08.flac
9ea7f5060134ca62243cfdaa9ae8af9f *gd78-05-17d1t09.flac
03991b118361dc2df8fa0677fd0c52a3 *gd78-05-17d1t10.flac
4ccf49f6d0f93adae9cf0d20ed55d5b8 *gd78-05-17d2t01.flac
2fa73166f99359edb83a297a85056a74 *gd78-05-17d2t02.flac
9068a0227078784c79cb96729e2dc721 *gd78-05-17d2t03.flac
0698391556ec5f84090797904984ca90 *gd78-05-17d2t04.flac
17b601e8ecee4dd74a4bd376b4033c46 *gd78-05-17d3t01.flac
08491900672e2de8413048b9a11313bd *gd78-05-17d3t02.flac
199d8b03fcbe5dee193a2da7bd92d5d5 *gd78-05-17d3t03.flac
7c6f9ca947d659fbeac5a016ecd1f622 *gd78-05-17d3t04.flac
0a060025651282ebc54f54dc4b4629fb *gd78-05-17d3t05.flac

Comments
Other Sources (comments)
AKG D202E mics > Sony... (1) flac16 ; Recorded by Phil... (0) flac16 ; Matrix by Hunter... (0) flac16 ; Both Sets... (1) flac16 ; Complete Set 2... (0)
Date User Comment
10/21/2010 cfrolio All my files fail md5 verification, although the ffp checksums verify ok. Any idea why?
10/22/2010 cfrolio Never mind--I figured out my problem.

All my files fail md5 verification, although the ffp checksums verify ok. Any idea why?
etreedb.org
For administrative requests email contact@etreedb.org
This website written by Tom H Anderson and maintained by the etreedb.org community.

Cached: Tue, 17 Sep 2019 13:22:57 EDT