Grateful Dead 11/21/78
Community War Memorial Auditorium, Rochester, NY
Source # 119997
Entered by Matt Vernon
Checksums ffp , flac-md5
Disc Counts 0 / 0
Media Size Compressed: 505.79 MB (530358927 bytes)
Date Circulated
Date Added
04/29/2012
04/29/2012
Source Summary
flac16; Partial Set 2 Source: Low-generation (C2?) Audience Cassette (Maxell UDXL-I C90); Cassette (Nakamichi DR-1) > Korg MR-1000 (1-bit/5.6MHz) > Audiogate (1-bit/5.6MHz > 16-bit/44.1KHz) > Soundforge 9.0 > CD Wave Editor > Trader's Little Helper > Flac16; Transfer & edits by Bob Morris, April 2012.
Grateful Dead - November 21, 1978 (Partial)
Rochester War Memorial - Rochester, New York

Low-generation (C2?) Audience Cassette (Maxell UDXL-I C90)

Cassette (Nakamichi DR-1) > Korg MR-1000 (1-bit/5.6MHz) >
Audiogate (1-bit/5.6MHz > 16-bit/44.1KHz) > Soundforge 9.0 >
CD Wave Editor > Trader's Little Helper > Flac16

Disc One

Partial Set 2:

01 Stagger Lee
02 Estimated Prophet ->
03 Eyes of the World ->
04 Drums ->
05 Space ->
06 Not Fade Away ->
07 Black Peter ->
08 Truckin'
09 Johnny B. Goode (encore)

Notes:
- Lineage is possibly Dave W: Senn 441s>Nak550>cassette master>C1>C2.
- Patched w/ID 11667: Stagger 0:00-0:17; Eyes 3:37-3:48; Peter 9:51-10:16.
- Total length 8:17; to write to a single CD, overburning is required.
- Thanks to dnick926, Dave W, Dave D, and gdvault.com.
- Transfer & edits by Bob Morris, April 2012.


    length     expanded size    cdr  WAVE problems  fmt   ratio  filename
     6:12.55       65750204 B   ---   --   ---xx   flac  0.6246  gd78-11-21d1t01.flac
    13:31.68      143220380 B   ---   --   ---xx   flac  0.6315  gd78-11-21d1t02.flac
    13:29.02      142712348 B   ---   --   ---xx   flac  0.6364  gd78-11-21d1t03.flac
    10:08.22      107302988 B   ---   --   ---xx   flac  0.6410  gd78-11-21d1t04.flac
     4:02.00       42688844 B   ---   --   ---xx   flac  0.6015  gd78-11-21d1t05.flac
     9:06.06       96328556 B   ---   --   ---xx   flac  0.6134  gd78-11-21d1t06.flac
    11:11.11      118390316 B   ---   --   ---xx   flac  0.5904  gd78-11-21d1t07.flac
     8:21.18       88418780 B   ---   --   ---xx   flac  0.6329  gd78-11-21d1t08.flac
     4:12.59       44591612 B   ---   --   ---xx   flac  0.6417  gd78-11-21d1t09.flac
    80:15.16      849404028 B                            0.6244  (9 files)
ffp
gd78-11-21d1t01.flac:769ab00703daa1b058bab12d0242a147
gd78-11-21d1t02.flac:a63ec18661ba81b9a3a7551c5969269b
gd78-11-21d1t03.flac:ee0dc15155ae0d02117bc8d1339d87c0
gd78-11-21d1t04.flac:352aaea1e1751c1d2b909df446f59035
gd78-11-21d1t05.flac:4926f31ff858c956ca5940683277b852
gd78-11-21d1t06.flac:dd1fd02bd714860d8e5cdf5e4e7ae979
gd78-11-21d1t07.flac:a4e375d7cf605b1b0e34a6942afcc036
gd78-11-21d1t08.flac:025bb2c6f078a314ba4a3c85b74c04ae
gd78-11-21d1t09.flac:04527bdeca80c2e479b62c07aab87d19
042c17c3658b5cf786547cb7158eed92 *gd78-11-21d1t01.flac
10c5f1ac885a7883f928188a934eda2b *gd78-11-21d1t02.flac
2480c391839f4bf07d9c4799112bc50c *gd78-11-21d1t03.flac
c64ea47db38d7f77da1ffa0716abce9d *gd78-11-21d1t04.flac
6a6026b4ae0c52460fcdca5baeb650ba *gd78-11-21d1t05.flac
cacceaeedd5836243493c1dc793fc439 *gd78-11-21d1t06.flac
b65faf684d92e58a8309eb5b1a18a887 *gd78-11-21d1t07.flac
036cd161caa207ffb785b3d524ab0e5e *gd78-11-21d1t08.flac
dcc4c6c67e19df239ab1b524d65cf28d *gd78-11-21d1t09.flac

Comments
etreedb.org
For administrative requests email contact@etreedb.org
This website written by Tom H Anderson and maintained by the etreedb.org community.

Cached: Sat, 19 Oct 2019 15:23:51 EDT