Grateful Dead 12/19/78
Memorial Coliseum, Mississippi State Fairgrounds, Jackson, MS
Source Summary
flac24; Recording Info: (FOB) Sony 54P -> Cassette Master (Sony TC-158SD); Transfer Info: Cassette Master (Nakamichi DR-1) -> Sound Devices 744T (24bit/96k) -> Adobe Audition v3.0 -> Samplitude Professional v11.2.1 -> FLAC/24; All Transfers and Mastering By Charlie Miller; Recorded by Bob Wagner
Grateful Dead - December 19, 1978
Mississippi State Fairgrounds
Memorial Coliseum - Jackson, MS

Recording Info:
(FOB) Sony 54P -> Cassette Master (Sony TC-158SD)

Transfer Info:
Cassette Master (Nakamichi DR-1) -> Sound Devices 744T (24bit/96k) ->
Adobe Audition v3.0 -> Samplitude Professional v11.2.1 -> FLAC/24
(1 DVD FLAC)

All Transfers and Mastering By Charlie Miller
charliemiller87@earthlink.net
September 6, 2012

Notes:
-- The beginning of Mississippi Half-Step is missing
-- Thanks to Bob Wagner for lending me his masters
-- Thanks to Joe B. Jones for his help with the pitch correction

Set 1:
s1t01 - Mississippi Half-Step Uptown Toodeloo ->
s1t02 - Franklin's Tower
s1t03 - New Minglewood Blues
s1t04 - They Love Each Other
s1t05 - Me And My Uncle ->
s1t06 - Big River
s1t07 - Loser
s1t08 - El Paso
s1t09 - Row Jimmy
s1t10 - Lazy Lightnin' ->
s1t11 - Supplication

Set 2:
s2t01 - Scarlet Begonias ->
s2t02 - Fire On The Mountain
s2t03 - Promised Land
s2t04 - Stagger Lee
s2t05 - Truckin' ->
s2t06 - Drums ->
s2t07 - Space ->
s2t08 - The Other One ->
s2t09 - Stella Blue ->
s2t10 - Not Fade Away ->
s2t11 - Around And Around

Encore:
s2t12 - Casey Jones


SHNTOOL OUTPUT:
    length     expanded size    cdr  WAVE problems  fmt   ratio  filename
     5:48.895     200963396 B   cxx   --   ---xx   flac  0.7379  gd78-12-19s1t01.flac
    12:56.922     447507386 B   cxx   --   ---xx   flac  0.7232  gd78-12-19s1t02.flac
     6:25.808     222225494 B   cxx   --   ---xx   flac  0.7223  gd78-12-19s1t03.flac
     8:15.902     285639818 B   cxx   --   ---xx   flac  0.7163  gd78-12-19s1t04.flac
     2:58.713     102938816 B   cxx   --   ---xx   flac  0.7240  gd78-12-19s1t05.flac
     6:21.726     219874160 B   cxx   --   ---xx   flac  0.7162  gd78-12-19s1t06.flac
     8:43.300     301421054 B   cxx   --   ---xx   flac  0.7156  gd78-12-19s1t07.flac
     5:48.268     200602220 B   cxx   --   ---xx   flac  0.7179  gd78-12-19s1t08.flac
    13:55.850     481449902 B   cxx   --   ---xx   flac  0.7143  gd78-12-19s1t09.flac
     3:38.956     126118532 B   cxx   --   ---xx   flac  0.7290  gd78-12-19s1t10.flac
     6:02.756     208947758 B   cxx   --   ---xx   flac  0.7446  gd78-12-19s1t11.flac
    11:29.799     397324124 B   cxx   --   ---xx   flac  0.7328  gd78-12-19s2t01.flac
    12:58.324     448314392 B   cxx   --   ---xx   flac  0.7295  gd78-12-19s2t02.flac
     6:41.430     231223562 B   cxx   --   ---xx   flac  0.7296  gd78-12-19s2t03.flac
     8:53.883     307516400 B   cxx   --   ---xx   flac  0.7192  gd78-12-19s2t04.flac
    14:29.496     500829908 B   cxx   --   ---xx   flac  0.7398  gd78-12-19s2t05.flac
     8:47.362     303760826 B   cxx   --   ---xx   flac  0.7153  gd78-12-19s2t06.flac
     1:04.600      37209662 B   cxx   --   ---xx   flac  0.5759  gd78-12-19s2t07.flac
    13:24.470     463375016 B   cxx   --   ---xx   flac  0.6131  gd78-12-19s2t08.flac
    11:03.957     382439522 B   cxx   --   ---xx   flac  0.5916  gd78-12-19s2t09.flac
    11:34.219     399870086 B   cxx   --   ---xx   flac  0.6252  gd78-12-19s2t10.flac
     9:53.380     341786876 B   cxx   --   ---xx   flac  0.6253  gd78-12-19s2t11.flac
     6:20.847     219368138 B   cxx   --   ---xx   flac  0.6952  gd78-12-19s2t12.flac
   197:38.865    6830707048 B                            0.6974  (23 files)


ffp
gd78-12-19s1t01.flac:3d56dfaf7ecdda7cb1b627b20d69460c
gd78-12-19s1t02.flac:90eaa09c1028c44f89eac13a503130a6
gd78-12-19s1t03.flac:723b242edfbd60ac36e7fd2c6b8baaba
gd78-12-19s1t04.flac:941fcdfb667593488116f504838c76e0
gd78-12-19s1t05.flac:230ac34093e1a06c1c7c6309ed1adb85
gd78-12-19s1t06.flac:60eb28b3f80a3d0cd20508ad8ff41791
gd78-12-19s1t07.flac:f8ba82784c073d520dada6058e1b5f29
gd78-12-19s1t08.flac:10668b8720339cbdd5fde240677a7a23
gd78-12-19s1t09.flac:7e7bae11a76cea78d277c5c2c2027ad1
gd78-12-19s1t10.flac:eff750cbb6923f997db0912869623ab9
gd78-12-19s1t11.flac:162c08d76a5d47528eeed8b7cd48e735
gd78-12-19s2t01.flac:21a9c1c9dac834c92de0e6f3160b63b5
gd78-12-19s2t02.flac:1720b10c10c5c1dedd739e38acf14a6f
gd78-12-19s2t03.flac:d966381516c00cd8ad9559fc16d9b0a6
gd78-12-19s2t04.flac:534e93401a250b63c139b20457e080c0
gd78-12-19s2t05.flac:54fb2fabd2fb923137dd1e0fe1ed25a7
gd78-12-19s2t06.flac:b8a0760b6bbfa4ac69dbe9dd01cd2334
gd78-12-19s2t07.flac:4f6baed6c3d7ef51dd91cdb3cdb94b95
gd78-12-19s2t08.flac:c99d38ceccba6113e68ed8ead9510b79
gd78-12-19s2t09.flac:f4dcc018119836e458779c6afab75f7a
gd78-12-19s2t10.flac:b5ae18b5961963abc48cbbaec3499921
gd78-12-19s2t11.flac:c9bb0d8197041bd1efd4e4154a4458b5
gd78-12-19s2t12.flac:ba65476df4ea75a7baa93e428ee35250
83c34211d6070250086d3872e2325ee3 *gd78-12-19s1t01.flac
36c14695b52bb300bf3023bb2f09c1d5 *gd78-12-19s1t02.flac
10836ee9d1162fdd31f8144e3b9416f0 *gd78-12-19s1t03.flac
c5a142ac411d8cd58ed97c784fb3bdc0 *gd78-12-19s1t04.flac
68193f9989b7b3eaaf8c525928183bb8 *gd78-12-19s1t05.flac
4ba634f766ce3504a649ecd564af84c8 *gd78-12-19s1t06.flac
6b1d14bb0534fd5cb536276ae750e491 *gd78-12-19s1t07.flac
193c437923ba5386f19ccbbb5c5c41ec *gd78-12-19s1t08.flac
9a3a1fb589baaff2dd30965dcc19e597 *gd78-12-19s1t09.flac
1e9ad2bd6824abba8861a60b775ebb81 *gd78-12-19s1t10.flac
6b851b4aef57b9bc25bfd56a5cb5dbbc *gd78-12-19s1t11.flac
686e76755bba6260d55f426345114432 *gd78-12-19s2t01.flac
c25ac935ac2e3d4ce290bd7191e560c7 *gd78-12-19s2t02.flac
0c2ae83fed0f37b6826899a62f9b92fa *gd78-12-19s2t03.flac
eca263c38f1a9b1ce6ffcccb581e9ba6 *gd78-12-19s2t04.flac
1db0e925f2fe54b053905d682e6ee069 *gd78-12-19s2t05.flac
e3d9094e5667823abc1bee196eb5540e *gd78-12-19s2t06.flac
cfaea22e6d4de3c49dd1151620c7cbd1 *gd78-12-19s2t07.flac
75537850f67a20b2e20652ecb4ddfad7 *gd78-12-19s2t08.flac
5fd3e980be9cfaf6fee19a057ecf9145 *gd78-12-19s2t09.flac
222ce43eadd099cfff1e92244a6aac9c *gd78-12-19s2t10.flac
a757827823eaa5e06e2386287142a462 *gd78-12-19s2t11.flac
58f5f745c99f96fabc47a8ddadc0da45 *gd78-12-19s2t12.flac

Comments
etreedb.org
For administrative requests email contact@etreedb.org
This website written by Tom H Anderson and maintained by the etreedb.org community.

Cached: Wed, 16 Oct 2019 18:20:27 EDT