New Grass Revival 12/31/89
Oakland Coliseum, Oakland, CA
Source # 138301
Entered by ziko
Checksums ffp , md5
Disc Counts 0 / 0
Media Size Compressed: 956.88 MB (1003361402 bytes)
Date Circulated
Date Added
05/17/2017
05/19/2017
Source Summary
flac24: Ultra Matrix SBD > Cassette Master (TDK MA-X90) Cassette Master (Nakamichi CR-7A) > Tascam DA-3000 (DSF 1-bit/5.8 MHz) > KORG AudioGate 4 > Samplitude Pro X3 Suite > FLAC/24, Transfers and Mastering By Charlie Miller
New Grass Revival - December 31, 1989
Oakland Coliseum Arena - Oakland, CA

Recording Info:
Ultra Matrix SBD > Cassette Master (TDK MA-X90)

Transfer Info:
Cassette Master (Nakamichi CR-7A) > Tascam DA-3000 (DSF 1-bit/5.8 MHz) >
KORG AudioGate 4 > Samplitude Pro X3 Suite > FLAC/24
(1 Disc FLAC)

All Transfers and Mastering By Charlie Miller
charliemiller87@earthlink.net
May 17, 2017

Notes:
-- Opened For The Grateful Dead

Lineup:
Sam Bush - mandolin, fiddle, guitar, vocals
Pat Flynn - guitar, vocals
Bela Fleck - banjo, guitar, vocals
John Cowan - bass guitar, vocals

Setlist:
01 - County Clare
02 - Do What You Gotta Do
03 - One Love
04 - Metric Lips
05 - Good Woman's Love
06 - Singin' The Blues
07 - Can't Stop Now


SHNTOOL OUTPUT:
    length     expanded size    cdr  WAVE problems  fmt   ratio  filename
     7:14.034     250003538 B   cxx   --   ---xx   flac  0.6843  01 County Clare.flac
     4:08.519     143147048 B   cxx   --   ---xx   flac  0.6780  02 Do What You Gotta Do.flac
     5:20.986     184888058 B   cxx   --   ---xx   flac  0.6756  03 One Love.flac
     5:16.989     182585480 B   cxx   --   ---xx   flac  0.6729  04 Metric Lips.flac
     4:27.305     153967472 B   cxx   --   ---xx   flac  0.6729  05 Good Woman's Love.flac
    11:35.684     400714100 B   cxx   --   ---xx   flac  0.6742  06 Singin' The Blues.flac
     4:50.580     167374238 B   cxx   --   ---xx   flac  0.6792  07 Can't Stop Now.flac
    42:54.097    1482679934 B                            0.6767  (7 files)


ffp
01 County Clare.flac:bbe85d80c14438a90d3d49b1b8f0c571
02 Do What You Gotta Do.flac:0792c569c9cbb456ce26c8fafca65068
03 One Love.flac:71fb95f976e9f6933f375f586026c8d6
04 Metric Lips.flac:7ee27142d210be81efa58bc2fbf933a8
05 Good Woman's Love.flac:595efbe80a6873917fa2697a4d63351e
06 Singin' The Blues.flac:4625d7f9f391d2127aa6c7bd8cd7e825
07 Can't Stop Now.flac:dfb2cc7c7eb399cf7e0e062582754ecf
md5
d9e58ef3000d0cadab70cf916e63cf58 *01 County Clare.flac
e420d76a5f68d307873ee79c4ea331e7 *02 Do What You Gotta Do.flac
dca2882c8dffb2eba6109538e7376bf6 *03 One Love.flac
0f674c44b0fb5609a071b3e7eab100f0 *04 Metric Lips.flac
2e80c13653c329be252a8d9946bccb02 *05 Good Woman's Love.flac
dfbd39e5640c474edd6e012338ea79a6 *06 Singin' The Blues.flac
0ad1e82124d581d64a95eb8bf4068528 *07 Can't Stop Now.flac

Comments
Other Sources (comments)
SBD > DAT > CD-R > flac (0) flac16: Ultra Matrix SBD >... (0)
Date User Comment
etreedb.org
For administrative requests email contact@etreedb.org
This website written by Tom H Anderson and maintained by the etreedb.org community.

Cached: Tue, 1 Dec 2020 10:24:41 EST