New Riders of the Purple Sage 12/31/81
Oakland Auditorium, Oakland, CA
Source Summary
AUD: Nakamichi CM300/CP4 shotguns > Sony TC-D5M > Maxell MX
NEW RIDERS OF THE PURPLE SAGE
Auditorium Arena
Oakland CA
12-31-1981

Opening for Grateful Dead

01 Henry
02 Night for Making Love
03 The Way She Dances
04 Dirty Business
05 Full Moon at Midnight
06 Up Against the Wall Redneck
07 Minglewood Blues
08 Panama Red
09 Last Lonely Eagle

AUD: Nakamichi CM300/CP4 shotguns > Sony TC-D5M > Maxell MX.
Recording by Brian Schley.

Transfer: MAC > Nakamichi CR-5A > Edirol FA-66 > Wavelab 2448 >
R8Brain SRC > CD-Wave > TLH > FLAC 1644 tagged. Transferred by
Andrew F. 11/2017



nrps1981-12-31t01.flac:1a9a57ad1b62c24c41fef0bf38bf3eb4
nrps1981-12-31t02.flac:f298a26ffe8b08130e9cf476400eb4cb
nrps1981-12-31t03.flac:30b407023ff6abbe2f226aa90546ea4e
nrps1981-12-31t04.flac:b2c4545d248128dd93105590d3af0c51
nrps1981-12-31t05.flac:4392f3d85075a038a0413ab3da40ae20
nrps1981-12-31t06.flac:78eb06281da04f70ed43c13dd49250c5
nrps1981-12-31t07.flac:a4ffb0ce5865897ad167d83303440031
nrps1981-12-31t08.flac:9c32f06ba2afb586bfa34fe82e89f10d
nrps1981-12-31t09.flac:f87c4de0e299b2e375edd086fe602a45
e899fdfd92840f4ddf55e920fa44f5b2 *nrps1981-12-31t01.flac
802fa8508e9e39dea9aba312e8c5c216 *nrps1981-12-31t02.flac
b1afb846b22cbe52a372272fd9ce783e *nrps1981-12-31t03.flac
d6be2ae7966c0a4b83bb3eda7f991ca5 *nrps1981-12-31t04.flac
efd494b58bd44c37965c4ae48c9943bb *nrps1981-12-31t05.flac
16e1ebba25a39949ed4667d067977fe1 *nrps1981-12-31t06.flac
bdbc3850d03ec92c1c659ff15e23441b *nrps1981-12-31t07.flac
8e2c729b7508448211c54a15d17480fd *nrps1981-12-31t08.flac
f76e46540f31488454185fab7dbd18b2 *nrps1981-12-31t09.flac
length expanded size cdr WAVE problems fmt ratio filename
3:51.62 40894268 B --- -- ---xx flac 0.6012 nrps1981-12-31t01.flac
4:17.41 45431276 B --- -- ---xx flac 0.5913 nrps1981-12-31t02.flac
4:23.22 46444988 B --- -- ---xx flac 0.6323 nrps1981-12-31t03.flac
11:32.33 122146460 B --- -- ---xx flac 0.5844 nrps1981-12-31t04.flac
4:32.32 48056108 B --- -- ---xx flac 0.5923 nrps1981-12-31t05.flac
4:21.30 46111004 B --- -- ---xx flac 0.5831 nrps1981-12-31t06.flac
5:35.21 59143436 B --- -- ---xx flac 0.6084 nrps1981-12-31t07.flac
3:15.15 34433324 B --- -- ---xx flac 0.6049 nrps1981-12-31t08.flac
5:34.09 58938812 B --- -- ---xx flac 0.5722 nrps1981-12-31t09.flac
47:23.40 501599676 B 0.5943 (9 files)

No errors occurred.

Comments
etreedb.org
For administrative requests email contact@etreedb.org
This website written by Tom H Anderson and maintained by the etreedb.org community.

Cached: Thu, 5 Aug 2021 17:10:47 EDT