Grateful Dead 08/30/78
Red Rocks Amphitheatre, Morrison, CO
Source Summary
flac16/48kHz; 1st Set: Mark Severson's Master Audience Cassettes; Sony ECM-270 mics (row 20, seats 73-75)> Sony TC-158SD (Maxell UDXLII); 2nd Set: Mark Severson's Master Audience Cassettes; Nakamichi 301 mics (row 20, seats 73-75)(patched out of Barry Glassberg) > Sony TC-158SD (Maxell UDXLII); Transfer Info: Master Cassettes (Nakamichi DR-1)> Tascam DA-3000 (DSF 1-bit/5.6 MHz) > dBpoweramp 24/96 > Adobe Audition CC 2019 > TLH flac2496; 24-bit > 16-bit via dBpoweramp
Grateful Dead
Red Rocks Amphitheatre
Morrison, CO
Wednesday  August 30th, 1978

This is a 16/48 fileset. 24-bit > 16-bit via dBpoweramp

Source Info:
1st Set: Mark Severson's Master  Audience Cassettes; Sony ECM-270 mics (row 20, seats 73-75)> Sony TC-158SD (Maxell UDXLII)
2nd Set: Mark Severson's Master  Audience Cassettes; Nakamichi 301 mics (row 20, seats 73-75)(patched out of Barry Glassberg) > Sony TC-158SD (Maxell UDXLII)

Transfer Info:
Master Cassettes (Nakamichi DR-1)> Tascam DA-3000 (DSF 1-bit/5.6 MHz) > dBpoweramp 24/96 > Adobe Audition CC 2019 > TLH flac2496

Notes:
- Thanks to Mark Severson for the master cassettes
- Thanks to Charlie Miller for the transfer and coordinating this effort
- Thanks to T. Wiley for the shnid11479 audience source which supplies an 0:18 patch in "The Other One", as well as a 0:12 patch in "Drums"
- Pitch corrected

Mastered by Scott Clugston
February 2019

Set One:
s1t01 - Crowd
s1t02 - Promised Land
s1t03 - Sugaree
s1t04 - Mexicali Blues >
s1t05 - Mama Tried
s1t06 - Stagger Lee
s1t07 - Looks Like Rain
s1t08 - Deal

Set Two:
s2t01 - Crowd
s2t02 - I Need A Miracle
s2t03 - Brown Eyed Women
s2t04 - Estimated Prophet >
s2t05 - The Other One >
s2t06 - Eyes of the World >
s2t07 - Drums >
s2t08 - Space >
s2t09 - If I Had The World To Give >
s2t10 - Iko Iko >
s2t11 - Around & Around
s2t12 - Encore Break
s2t13 - US Blues

    length     expanded size    cdr  WAVE problems  fmt   ratio  filename
     5:01.147      57820204 B   cxx   --   ---xx   flac  0.5631  gd78-08-30 s1t01 Crowd.flac
     8:08.693      93829164 B   cxx   --   ---xx   flac  0.6056  gd78-08-30 s1t02 Promised Land.flac
    21:32.253     248112684 B   cxx   --   ---xx   flac  0.6139  gd78-08-30 s1t03 Sugaree.flac
     3:11.493      36766764 B   cxx   --   ---xx   flac  0.6479  gd78-08-30 s1t04 Mexicali Blues.flac
     5:49.947      67189804 B   cxx   --   ---xx   flac  0.6013  gd78-08-30 s1t05 Mama Tried.flac
     9:23.507     108193324 B   cxx   --   ---xx   flac  0.6081  gd78-08-30 s1t06 Stagger Lee.flac
    11:29.973     132474924 B   cxx   --   ---xx   flac  0.6042  gd78-08-30 s1t07 Looks Like Rain.flac
     8:04.931      93106872 B   cxx   --   ---xx   flac  0.6473  gd78-08-30 s1t08 Deal.flac
     4:22.587      50416684 B   cxx   --   ---xx   flac  0.5157  gd78-08-30 s2t01 Crowd.flac
    11:37.987     134013484 B   cxx   --   ---xx   flac  0.6145  gd78-08-30 s2t02 I Need A Miracle.flac
     9:27.333     108928044 B   cxx   --   ---xx   flac  0.5848  gd78-08-30 s2t03 Brown Eyed Women.flac
    12:16.707     141447724 B   cxx   --   ---xx   flac  0.6175  gd78-08-30 s2t04 Estimated Prophet.flac
     9:06.533     104934444 B   cxx   --   ---xx   flac  0.6292  gd78-08-30 s2t05 The Other One.flac
    17:08.787     197527084 B   cxx   --   ---xx   flac  0.5958  gd78-08-30 s2t06 Eyes Of The World.flac
    12:11.493     140446764 B   cxx   --   ---xx   flac  0.5516  gd78-08-30 s2t07 Drums.flac
     7:37.867      87910444 B   cxx   --   ---xx   flac  0.5414  gd78-08-30 s2t08 Space.flac
    10:29.533     120870444 B   cxx   --   ---xx   flac  0.6168  gd78-08-30 s2t09 If I Had The World To Give.flac
    10:39.387     122762284 B   cxx   --   ---xx   flac  0.6295  gd78-08-30 s2t10 Iko Iko.flac
     8:56.973     103098924 B   cxx   --   ---xx   flac  0.6441  gd78-08-30 s2t11 Around & Around.flac
     2:56.147      33820204 B   cxx   --   ---xx   flac  0.5567  gd78-08-30 s2t12 Encore Break.flac
     6:13.068      71629132 B   cxx   --   ---xx   flac  0.6432  gd78-08-30 s2t13 US Blues.flac
   195:46.346    2255299400 B                            0.6045  (21 files)



ffp
gd78-08-30 s1t01 Crowd.flac:6c719f9ba100a23e710b7573d5684a84
gd78-08-30 s1t02 Promised Land.flac:25ef9cd9551743aaf7c1a634b7710108
gd78-08-30 s1t03 Sugaree.flac:c48e480a43f34842b50147c7323b1ded
gd78-08-30 s1t04 Mexicali Blues.flac:d929f892cdb448ec5d5cb951d2679a75
gd78-08-30 s1t05 Mama Tried.flac:f8094ebd544f40c667a963b073b75f9a
gd78-08-30 s1t06 Stagger Lee.flac:e237c0111a4d49d003bad8cede943dc4
gd78-08-30 s1t07 Looks Like Rain.flac:297503d628a77d5491d8a1dc95aac71e
gd78-08-30 s1t08 Deal.flac:b010f7c941998a19fb33354aa5e11d06
gd78-08-30 s2t01 Crowd.flac:20fdf4359b9439412ea37a02096f52a7
gd78-08-30 s2t02 I Need A Miracle.flac:ba15cac9f7064c818704d3d38b4f6c7e
gd78-08-30 s2t03 Brown Eyed Women.flac:7d2c9c6e3daf28abeac7963ec5220552
gd78-08-30 s2t04 Estimated Prophet.flac:a7f14441af2518db9e521e54c7bedd98
gd78-08-30 s2t05 The Other One.flac:932bca97ce378fb9af41bbee83dbbb76
gd78-08-30 s2t06 Eyes Of The World.flac:3724820997232e92ce5b2036ce4bd758
gd78-08-30 s2t07 Drums.flac:9ba3d7512c184cf250a41f2fd70580e0
gd78-08-30 s2t08 Space.flac:b755eb724a3e9a2a415ef7bd299b41cf
gd78-08-30 s2t09 If I Had The World To Give.flac:8be8d03674c2e08e293099907f6a62ba
gd78-08-30 s2t10 Iko Iko.flac:f74ce387312f5bfc68caabf1050b75f1
gd78-08-30 s2t11 Around & Around.flac:e6e87ddc70bd19f3e869d81d3e39e381
gd78-08-30 s2t12 Encore Break.flac:56f5018afea83809cb7ba9c83a714204
gd78-08-30 s2t13 US Blues.flac:01fae178b5d31bb484b5f9ff6dfa0084
1ffae78613bcd825f0647bd2c499ffb1 *gd78-08-30 s1t01 Crowd.flac
c4f34747e17dca4263aa5d876a0879ae *gd78-08-30 s1t02 Promised Land.flac
0ba2ca3c49b78232f23d5a7f8a37ad8c *gd78-08-30 s1t03 Sugaree.flac
c4f45b37392a74f60a0af135267448ef *gd78-08-30 s1t04 Mexicali Blues.flac
3378aedb4734f0a9f4966291fd406779 *gd78-08-30 s1t05 Mama Tried.flac
b8cf3c79cb625d9cf37a3d39d7a21b41 *gd78-08-30 s1t06 Stagger Lee.flac
a55cbe6ae93a6a273f62642bea12c5f0 *gd78-08-30 s1t07 Looks Like Rain.flac
2d1edc2bb4994780f69e4fc6c4fbdcc4 *gd78-08-30 s1t08 Deal.flac
7d94373bf5035b49ba360645d8cddff6 *gd78-08-30 s2t01 Crowd.flac
a6c29fc82d4f6b2352d2a5e9351c4b2b *gd78-08-30 s2t02 I Need A Miracle.flac
6d0a7fb86ff7ced529896bc71d017b9b *gd78-08-30 s2t03 Brown Eyed Women.flac
823ffc3a3e1d8116f7187aecb08c256e *gd78-08-30 s2t04 Estimated Prophet.flac
4c11ee7e516dcb4c9ede3c7ffed3d363 *gd78-08-30 s2t05 The Other One.flac
f540026a21aeb8323dca8012889632a9 *gd78-08-30 s2t06 Eyes Of The World.flac
c3af6eedf547faaf5b4c78004258777b *gd78-08-30 s2t07 Drums.flac
b1d92bad8e5f6c4b5010c626e831585e *gd78-08-30 s2t08 Space.flac
7d6e0204a3a9b03c2b9841c6560e45d0 *gd78-08-30 s2t09 If I Had The World To Give.flac
1421211ac740b702fbf1cbb6e98c1e0a *gd78-08-30 s2t10 Iko Iko.flac
b31651ae2dd62d147627291a8605c096 *gd78-08-30 s2t11 Around & Around.flac
d4b7478483cd630f9e1dcba70c59ed40 *gd78-08-30 s2t12 Encore Break.flac
c64198c7e991e77904adcc7ff57fb65a *gd78-08-30 s2t13 US Blues.flac

Comments
etreedb.org
For administrative requests email contact@etreedb.org
This website written by Tom H Anderson and maintained by the etreedb.org community.

Cached: Tue, 17 Sep 2019 09:21:13 EDT