New Riders of the Purple Sage 04/27/77
Ivanhoe Theater, Chicago, IL
Source # 145788
Entered by Scott
Checksums nrps1977-04-27.md5 , nrps1977-04-27.ffp , shntool output
Disc Counts 0 / 0
Media Size Compressed: 1.23 GB (1317557743 bytes)
Uncompressed: 1.87 GB (2005187264 bytes)
Date Circulated
Date Added
03/24/2019
03/24/2019
Source Summary
WXRT-FM Chicago > Pat Lee's Reel Master [Flac 24]
New Riders Of The Purple Sage
The Ivanhoe Theater
Chicago, IL
04/27/1977 - recorded *
06/19/1977 - broadcast

WXRT 93.1 FM - UnConcert Series

Source: WXRT-FM Chicago > Pat Lee's Reel Master
Transfer: Reel > Technics RS1506 > Tascam DA3000 (1 bit DSD) > dB poweramp > wav 24/96 - Transferred by Matt Smith
Lineage: wav 24/96 > Adobe Audition 3 > iZotope RX7 Advanced > iZotope Ozone 5 Advanced > CD Wave > Flac 24



01   intro
02   Panama Red
03   15 Days Under The Hood
04   By And By When I Need You
05   Louisiana Lady
06   Henry
07   Just Another Night In Reno
08   Home Grown
09   Lonesome LA Cowboy
10   Love Has Strange Ways
11   Red Hot Women And Ice Cold Beer
12   Whiskey
13   She's Looking Better Every Beer
14   You Never Can Tell
15   Heineken Slide
16   Up Against The Wall, Redneck Mother




John "Marmaduke" Dawson - vocals, guitar
David Nelson - guitar, vocals
Buddy Cage - pedal steel
Stephen Love - bass
Spencer Dryden - drums



Comments:

- THE NRPS website shows the date as 12/07/1997 but there is a photograph in the Getty Archive of Marmaduke with the caption "The New Riders Of The Purple Sage Performing, John Dawson of the New Riders of the Purple Sage at the Ivanhoe Theater in Chicago, Illinois, April 27, 1977. (Photo by Paul Natkin/Getty Images)". *



Thanks to Pat Lee for his recording.

Thanks to Matt Smith for the transfer.


edited and mastered
SIRMick
March 2019


80fa786c592a48c01af08c8ee557eaaf *nrps1977-04-27t01.flac
e09baac76208877c8e8b43c36f15359b *nrps1977-04-27t02.flac
9073d0184c5958c31afee2d9baf5c230 *nrps1977-04-27t03.flac
067ca0aace34570c917b0b59d6ebda11 *nrps1977-04-27t04.flac
5fdbb3010f13bf252b4ab2c80293052d *nrps1977-04-27t05.flac
74a1028d017433a2f138eeea57b8df93 *nrps1977-04-27t06.flac
746c4d6febd1b5b4cfe6ac8605dd8372 *nrps1977-04-27t07.flac
a2ae0dd398495287e0e04b4a0e267cae *nrps1977-04-27t08.flac
fd5c078810fbb6ae40730b3458f07c77 *nrps1977-04-27t09.flac
a7d9db32c5f04340a70ca9c1e849e312 *nrps1977-04-27t10.flac
8b3e3c02185fdb8cdd065484204bf952 *nrps1977-04-27t11.flac
9de73ccb6def9f7ec9dd4e73b06dc931 *nrps1977-04-27t12.flac
6b3f6d419cfc32c3ce542088856e27b7 *nrps1977-04-27t13.flac
c4de28e5b7663014b6b32cc1996ad5ac *nrps1977-04-27t14.flac
95ad0d893397bcfee1ca7ce3a40805d3 *nrps1977-04-27t15.flac
db7d3db11b21761b4267c8c685241beb *nrps1977-04-27t16.flac
nrps1977-04-27t01.flac:b40d96aec5838299c8bb2d24a62d9744
nrps1977-04-27t02.flac:4a0151f1eb06c5d0944f2d4aa5188d82
nrps1977-04-27t03.flac:6a0ba6e52c882b9d66be22be80b8269f
nrps1977-04-27t04.flac:4b4ba2ac3d4fc2436d172c0a79c6dd53
nrps1977-04-27t05.flac:e14c1e9d542cd07a2c7c1aa03bc143eb
nrps1977-04-27t06.flac:32a41d59609e217674c3316a10c1eb00
nrps1977-04-27t07.flac:0a25551575cee032c3d308b3f27ee725
nrps1977-04-27t08.flac:e0f8ffb3c1d9561f11625d1de52eeb97
nrps1977-04-27t09.flac:495ff27202f574ce72cc5fc3749dfa2e
nrps1977-04-27t10.flac:5c6368c905ce20615ef5fc7a35e11030
nrps1977-04-27t11.flac:de68acf309bdc0a70abf215e3cf8c1ef
nrps1977-04-27t12.flac:09fe91b41941ab9c8478060fb1105361
nrps1977-04-27t13.flac:0dc33d52540a7cc7f1917a391fdfcb6b
nrps1977-04-27t14.flac:f22ae20cfe198322096a6cfdcab29e2d
nrps1977-04-27t15.flac:0b94f84bd8490a46a9322c6d253d8887
nrps1977-04-27t16.flac:77e1878e65af0f7f81983386d307a6fb
length expanded size cdr WAVE problems fmt ratio filename
0:09.267 5337644 B cxx -- ---xx flac 0.6432 nrps1977-04-27t01.flac
3:21.040 115799084 B cxx -- ---xx flac 0.6602 nrps1977-04-27t02.flac
4:02.627 139753004 B cxx -- ---xx flac 0.6635 nrps1977-04-27t03.flac
2:13.187 76715564 B cxx -- ---xx flac 0.6636 nrps1977-04-27t04.flac
3:55.147 135444524 B cxx -- ---xx flac 0.6640 nrps1977-04-27t05.flac
4:41.800 162316844 B cxx -- ---xx flac 0.6624 nrps1977-04-27t06.flac
3:21.693 116175404 B cxx -- ---xx flac 0.6496 nrps1977-04-27t07.flac
3:49.387 132126764 B cxx -- ---xx flac 0.6511 nrps1977-04-27t08.flac
4:01.560 139138604 B cxx -- ---xx flac 0.6583 nrps1977-04-27t09.flac
5:28.347 189127724 B cxx -- ---xx flac 0.6615 nrps1977-04-27t10.flac
4:03.253 140113964 B cxx -- ---xx flac 0.6551 nrps1977-04-27t11.flac
3:25.387 118302764 B cxx -- ---xx flac 0.6557 nrps1977-04-27t12.flac
2:49.067 97382444 B cxx -- ---xx flac 0.6560 nrps1977-04-27t13.flac
4:56.080 170542124 B cxx -- ---xx flac 0.6597 nrps1977-04-27t14.flac
3:36.520 124715564 B cxx -- ---xx flac 0.6434 nrps1977-04-27t15.flac
4:06.867 142195244 B cxx -- ---xx flac 0.6498 nrps1977-04-27t16.flac
58:01.227 2005187264 B 0.6571 (16 files)

Comments
Other Sources (comments)
FMMR > DAT > WAV > SHN... (1) WXRT-FM Chicago > Pat Lee's... (0)
Date User Comment
etreedb.org
For administrative requests email contact@etreedb.org
This website written by Tom H Anderson and maintained by the etreedb.org community.

Cached: Thu, 23 Sep 2021 19:41:37 EDT