John Bell 09/18/94
Monroe Fairgrounds, Monroe, GA
Source # 165990
Entered by Michael
Checksums all.md5 , all.st5
Disc Counts 0 / 0
Media Size Compressed: 519.92 MB (545180587 bytes)
Uncompressed: 897.64 MB (941242748 bytes)
Date Circulated
Date Added
01/08/2001
10/15/2023
Source Summary
SBD > DAT > Zefiro ZA2 > CD;
'JB & Friends' - 9/18/94 Monroe Fairgrounds, Monroe, GA

Source: SBD>DAT>Zefiro ZA2>CD

Thanks to Alan Schwartz for the disc. Extracted and Shn'ed by Corey Levy.

Disc 1: Ain't Life Grand, Smokestack Lighting, Impossible > Werewolves of London > Fishwater, And It Stoned Me, Low Rider

Disc 2: Bowlegged Woman, West Virginia, Who Do You Belong To?, Makes Sense To Me, End Of The Show

E: Coconut

Billed as 'JB & Friends'; 'Ain't Life Grand' and 'Smokestack Lighting' with Samantha Wood; 'Who Do You Belong To?',
'Makes Sense To Me' and 'End Of The Show' with Eric Carter and Danny Hutchens; with White Buffalo, Bloodkin, and Drivin' n' Cryin';
everyone except JoJo; 'Satisfied' rap during 'Coconut'

Setlist thanks to: http://www.everydaycompanion.com/asp/ssp.asp


There is one Digi Noise error during Smokestack Lighting at 5:15


    length     expanded size    cdr  WAVE problems  fmt   ratio  filename
     4:42.00       49744844 B   ---   --   ---xx    shn  0.5817  JB&fri84-09-18d1t01.shn
    11:19.00      119775644 B   ---   --   ---xx    shn  0.5621  JB&fri84-09-18d1t02.shn
     5:45.00       60858044 B   ---   --   ---xx    shn  0.5981  JB&fri84-09-18d1t03.shn
     6:31.00       68972444 B   ---   --   ---xx    shn  0.5830  JB&fri84-09-18d1t04.shn
     8:41.00       91904444 B   ---   --   ---xx    shn  0.5952  JB&fri84-09-18d1t05.shn
     6:02.00       63856844 B   ---   --   ---xx    shn  0.5593  JB&fri84-09-18d1t06.shn
     8:35.63       90994220 B   ---   --   ---xx    shn  0.5853  JB&fri84-09-18d1t07.shn
     7:05.00       74970044 B   ---   --   ---xx    shn  0.6053  JB&fri84-09-18d2t01.shn
     2:40.00       28224044 B   ---   --   ---xx    shn  0.4450  JB&fri84-09-18d2t02.shn
     5:21.00       56624444 B   ---   --   ---xx    shn  0.5960  JB&fri84-09-18d2t03.shn
     7:13.00       76381244 B   ---   --   ---xx    shn  0.5820  JB&fri84-09-18d2t04.shn
     6:01.00       63680444 B   ---   --   ---xx    shn  0.5244  JB&fri84-09-18d2t05.shn
     9:00.00       95256044 B   ---   --   ---xx    shn  0.6202  JB&fri84-09-18d2t06.shn
    88:55.63      941242748 B                            0.5792  (13 files)



9c24205d83ec108bdde37931d0da868b *JB&fri84-09-18d2t02.shn
461db845b1e8b584cf7368c2fdf34caa *JB&fri84-09-18d1t02.shn
33689664c3919f025967becee9eadda1 *JB&fri84-09-18d1t03.shn
9699c5cfaf3ff3648f400ad93c449d39 *JB&fri84-09-18d1t04.shn
3686e85d155d563176c4e302dad664f7 *JB&fri84-09-18d1t05.shn
face71c9d2193a09067b636ab1aca414 *JB&fri84-09-18d1t06.shn
3f4d7b797152f270e07b3c8adadb7a82 *JB&fri84-09-18d1t07.shn
cd10d2bf0e0cf4051f559eed4d1bedd9 *JB&fri84-09-18d2t01.shn
d1ec810ef0e257f88b905a48d21333a4 *JB&fri84-09-18d1t01.shn
36b46b769401a49b0d5ff9584b8a1975 *JB&fri84-09-18d2t03.shn
af4505224d196cd92a3d2f44f74c5b98 *JB&fri84-09-18d2t04.shn
c1a4c6dbdd0dc3fc9ba04f19ff3633c7 *JB&fri84-09-18d2t05.shn
6a7036df28bf854bdc138cd37bd0458a *JB&fri84-09-18d2t06.shn
;shntool st5 checksums generated by xACT 2.50 on 2023-04-01 05:23:31 +0000

6b69e39481230fb783a9fec0168529af [shntool] JB&fri84-09-18d1t01.shn
c7643fd7298c0034094e3b224c196414 [shntool] JB&fri84-09-18d1t02.shn
520e6fa16f274e6b065901f60ffca1c9 [shntool] JB&fri84-09-18d1t03.shn
ec6f39a67417c72410f754a35450d76a [shntool] JB&fri84-09-18d1t04.shn
62a8eb70466ef27654cca9a6d7216975 [shntool] JB&fri84-09-18d1t05.shn
d4a719d82a8cf57d81e045e193eb83db [shntool] JB&fri84-09-18d1t06.shn
b85f14001d99eaa93988f7484d6974cb [shntool] JB&fri84-09-18d1t07.shn
d6edb8d31d7199a6ade394b2078ee54c [shntool] JB&fri84-09-18d2t01.shn
5ea083cab2a140f4a5d3c28ba68662c9 [shntool] JB&fri84-09-18d2t02.shn
7d292593d10e713cd2fb3aebceee935f [shntool] JB&fri84-09-18d2t03.shn
d47cf20bb1bf7146463cf8430c879c33 [shntool] JB&fri84-09-18d2t04.shn
c1cb804c41029d86518ae5549e066f2b [shntool] JB&fri84-09-18d2t05.shn
61d721a62f400df49292a4107ac4129d [shntool] JB&fri84-09-18d2t06.shn

Comments
Other Sources (comments)
DAT (c) > Sony 59ES >... (0) flac16 44.1kHz SBD > DAT... (0)
Date User Comment
etreedb.org
For administrative requests email contact@etreedb.org
This website written by Tom H Anderson and maintained by the etreedb.org community.

Cached: Thu, 20 Jun 2024 11:02:16 EDT