Grateful Dead 04/16/78
Huntington Civic Center, Huntington, WV
Source Summary
flac16; Recording Info: SBD -> Master Reel -> PCM -> Dat (44.1k); Transfer Info: Dat -> Samplitude Professional v8.01 -> FLAC by Charlie Miller
Grateful Dead - April 16, 1978
Civic Center - Huntington, WV

Recording Info:
SBD -> Master Reel -> PCM -> Dat (44.1k)

Transfer Info:
Dat -> Samplitude Professional v8.01 -> FLAC
(3 Discs Audio / 2 Discs FLAC)

All Transfers and Mastering By Charlie Miller
charliemiller87@earthlink.net
January 28, 2007

Notes:
-- Set 2 is seamless
-- This source doesn't have the flaws that the other sources have
-- Reel flip during Drumms fixed with crossfade

Set 1:
d1t01 - Tuning
d1t02 - Jack Straw
d1t03 - Dire Wolf
d1t04 - Cassidy
d1t05 - Peggy-O
d1t06 - Mexicali Blues ->
d1t07 - Mama Tried
d1t08 - They Love Each Other
d1t09 - New Minglewood Blues
d1t10 - Scarlet Begonias ->
d1t11 - Fire On The Mountain

Set 2:
d2t01 - Tuning
d2t02 - Samson And Delilah
d2t03 - Ship Of Fools
d2t04 - Estimated Prophet ->
d2t05 - Eyes Of The World ->
d2t06 - Drums ->
d3t01 - Space ->
d3t02 - Iko Iko ->
d3t03 - Sugar Magnolia

Encore:
d3t04 - U.S. Blues


SHNTOOL OUTPUT:
    length     expanded size   cdr  WAVE problems filename
     0:47.12        8319068    ---   --   -----   gd78-04-16d1t01.wav
     5:55.06       62636156    ---   --   -----   gd78-04-16d1t02.wav
     5:26.63       57654620    ---   --   -----   gd78-04-16d1t03.wav
     4:43.18       49963580    ---   --   -----   gd78-04-16d1t04.wav
     8:35.43       90947180    ---   --   -----   gd78-04-16d1t05.wav
     3:25.67       36319628    ---   --   -----   gd78-04-16d1t06.wav
     3:17.16       34788476    ---   --   -----   gd78-04-16d1t07.wav
     7:56.12       83994668    ---   --   -----   gd78-04-16d1t08.wav
     6:47.25       71853644    ---   --   -----   gd78-04-16d1t09.wav
     9:54.24      104838092    ---   --   -----   gd78-04-16d1t10.wav
     9:20.53       98908700    ---   --   -----   gd78-04-16d1t11.wav
     1:01.55       10889804    ---   --   -----   gd78-04-16d2t01.wav
     8:00.29       84740252    ---   --   -----   gd78-04-16d2t02.wav
     9:00.42       95354828    ---   --   -----   gd78-04-16d2t03.wav
    12:04.56      127845356    ---   --   -----   gd78-04-16d2t04.wav
    11:45.31      124434956    ---   --   -----   gd78-04-16d2t05.wav
    14:28.64      153265772    ---   --   -----   gd78-04-16d2t06.wav
     4:30.74       47802092    ---   --   -----   gd78-04-16d3t01.wav
    12:07.60      128383964    ---   --   -----   gd78-04-16d3t02.wav
    10:18.55      109144604    ---   --   -----   gd78-04-16d3t03.wav
     5:53.07       62285708    ---   --   -----   gd78-04-16d3t04.wav
   155:21.62     1644371148 B                     (totals for 21 files)
a0a0bc3d9cf1862c292030da2d5aa4e9 *gd78-04-16d1t01.flac
cdd9db24a4b8b92ce0cbffbde27e115b *gd78-04-16d1t02.flac
7f067f4ee7a4b5d57d1b219744c86d21 *gd78-04-16d1t03.flac
73914a3cfc426c64e01485a6a866dd17 *gd78-04-16d1t04.flac
7b810dad76e8939bdb39012ef7fc0a85 *gd78-04-16d1t05.flac
2cfa8eaa8f04706d1300623d057031b5 *gd78-04-16d1t06.flac
c725abbd5b34492ff44a4650f9043010 *gd78-04-16d1t07.flac
f98b5d2c26098faf96f300826b9fe050 *gd78-04-16d1t08.flac
ef52c8e656100cc01928473e50ca6405 *gd78-04-16d1t09.flac
133df1de65a02632e58432357481934d *gd78-04-16d1t10.flac
77fdb505e20919b1703664888d7a40f9 *gd78-04-16d1t11.flac
1184d4bc05a70fd64fc024d850425e8f *gd78-04-16d2t01.flac
c562e48b37e9ffe736e0f32a3c9d1620 *gd78-04-16d2t02.flac
0d2e1f9259907eb298a92f35cd370b2e *gd78-04-16d2t03.flac
c1b1a1ae87d1fe782aaa2b3a002d5bf1 *gd78-04-16d2t04.flac
25b3eecc940a4b4dd84cad57f9d4da11 *gd78-04-16d2t05.flac
9705698d5ffe5e91dd22aecc6d79fdb2 *gd78-04-16d2t06.flac
d478d13ff58de22eec0b551e71d6eacf *gd78-04-16d3t01.flac
7c2dd578521d549c41e23a68856bc6fa *gd78-04-16d3t02.flac
72198598463b6ca4054ea56bc3111fac *gd78-04-16d3t03.flac
e84d07cf6d40f4cb1a09b5cc1502ad6c *gd78-04-16d3t04.flac
ffp
gd78-04-16d1t01.flac:1feb95c6079ccb4d4655c3aa1a995e44
gd78-04-16d1t02.flac:d49640382be532e6a70509a1e8dc5b78
gd78-04-16d1t03.flac:09ff154fc125d7914d6e91b212817b14
gd78-04-16d1t04.flac:aef7f5a2b94c4d7d00938caa9edf959f
gd78-04-16d1t05.flac:ba77d2f1dbcb923b250e5a2619bebb60
gd78-04-16d1t06.flac:ce26acf7a9a20be5a8a2fd2c647be861
gd78-04-16d1t07.flac:b773335dce2456b2efb3fe69482b7365
gd78-04-16d1t08.flac:b0638bdbde5aad0d09462739dd0e8b7e
gd78-04-16d1t09.flac:57198698a43dcc50b45571f20b7a225c
gd78-04-16d1t10.flac:7023fa00f44b2dec3c865ebdd80d406b
gd78-04-16d1t11.flac:e74a6b37b5f456344203d5fdcf820938
gd78-04-16d2t01.flac:4a6c34a29fccb7e5d00493691479aa12
gd78-04-16d2t02.flac:dd7c2c61ac5077071afe26b927c5432b
gd78-04-16d2t03.flac:f11a3d5e7062f7666e909e327c6859d1
gd78-04-16d2t04.flac:058b2d5bb11f2dd8f4c43c1a097a3bf5
gd78-04-16d2t05.flac:fcc1afa3e06bbfe6d4815c1f109188df
gd78-04-16d2t06.flac:fae5148d583aa48653675e705bd0a79e
gd78-04-16d3t01.flac:467e9e62b67dfe5328aa2255021be977
gd78-04-16d3t02.flac:17915f13390f8e2c325ff6edca69ee5f
gd78-04-16d3t03.flac:7629c576f187c0969be1bc955eda733f
gd78-04-16d3t04.flac:433c81575c97b556d65126e66e4934be

Comments
etreedb.org
For administrative requests email contact@etreedb.org
This website written by Tom H Anderson and maintained by the etreedb.org community.

Cached: Wed, 16 Oct 2019 17:34:15 EDT