Grateful Dead 09/13/78
Gizah Sound and Light Theater, Cairo, Egypt
Source Summary
flac16; Soundcheck - Recording Info: Unknown Mics -> Cassette Master -> ? -> Dat (48k) Transfer Info: Dat (Sony R500) -> Samplitude Professional v9.11 -> FLAC All Transfers and Mastering By Charlie Miller
Grateful Dead - September 13, 1978
Sphinx Theatre - Giza, Egypt
**SOUNDCHECK**

Recording Info:
Unknown Mics -> Cassette Master -> ? -> Dat (48k)

Transfer Info:
Dat (Sony R500) -> Samplitude Professional v9.11 -> FLAC
(1 Disc Audio / 1 Disc FLAC)

All Transfers and Mastering By Charlie Miller
charliemiller87@earthlink.net
October 20, 2007

Notes:
-- This is the soundcheck for the following 3 nights
-- The Grateful Dead are only on the first track
-- With Hamza el Din

Set One:
d1t01 - Ollin Arrageed
d1t02 - ?
d1t03 - ?
d1t04 - ?


SHNTOOL OUTPUT:
    length     expanded size   cdr  WAVE problems filename
     8:18.55       87976604    ---   --   -----   gd78-09-13d1t01.wav
    14:46.10      156313964    ---   --   -----   gd78-09-13d1t02.wav
     6:33.29       69393452    ---   --   -----   gd78-09-13d1t03.wav
     3:15.47       34508588    ---   --   -----   gd78-09-13d1t04.wav
    32:53.66      348192608 B                     (totals for 4 files)
ffp
gd78-09-13d1t01.flac:89813d30045449960164f24d5fce162f
gd78-09-13d1t02.flac:91da81f2f7a6a778de74adc007dc3c5c
gd78-09-13d1t03.flac:504ae569cbef2594b0ca277b480247bb
gd78-09-13d1t04.flac:54617c913b06d050fde7e89e9b8ced58
48e036bd32d7680f6cc8137a7aaebf0b *gd78-09-13d1t01.flac
d227e3c9889d73a614327ab950eac419 *gd78-09-13d1t02.flac
68aafaa88b9249877228eeda243ee3fd *gd78-09-13d1t03.flac
a5a0bdbfbd19bffdca4c93490b4070e3 *gd78-09-13d1t04.flac

Comments
Other Sources (comments)
soundcheck; Aud Cassette... (0) Soundcheck from night... (2) flac16 ; Source: Aud FOB,... (0)
Date User Comment
etreedb.org
For administrative requests email contact@etreedb.org
This website written by Tom H Anderson and maintained by the etreedb.org community.

Cached: Tue, 17 Sep 2019 13:23:22 EDT