Grateful Dead 07/08/78
Red Rocks Amphitheatre, Morrison, CO
Source Summary
flac16; SBD> [?]> DAT> CDR; via Jeff Hoelter - patched and pitch correction by Kevin Tobin
Grateful Dead
07/08/78
Red Rocks Amphitheatre,
Morrison, CO

Original SBD (shnid=294)
Source: SBD> [?]> DAT>CDR
Notes: No known flaws.

Set I:
d1t01 - Crowd\tuning
d1t02 - Bobby Joke
d1t03 - Bertha >
d1t04 - Good Lovin'
d1t05 - Dire Wolf
d1t06 - El Paso
d1t07 - It Must Have Been The Roses
d1t08 - New Minglewood Blues
d1t09 - Ramble On Rose
d1t10 - Crowd\tuning
d1t11 - The Promised Land
d1t12 - Deal

Set II:
d2t01 - Samson And Delilah
d2t02 - Ship Of Fools
d2t03 - Estimated Prophet >
d2t04 - The Other One >
d2t05 - Eyes Of The World >
d2t06 - Drums >
d3t01 - Space >
d3t02 - Wharf Rat >
d3t03 - Franklin's Tower >
d3t04 - Sugar Magnolia

Encore:
d3t05 - Terrapin Station >
d3t06 - One More Saturday Night
d3t07 - Werewolves Of London

Pathced using Audience (shnid=91766)
MOTB Release: 0068 16/44.1
Release Date: 2008-05-03
Band: Grateful Dead
Date: 1978-07-08 (Saturday)
Venue: Red Rocks Amphitheatre
Location: Morrison, CO
Analog Audience Source: FOB Master Cassettes (MAC)
Medium Stock Brands: MAC = 3 x Maxell UD XL II C90
Analog Lineage: Unknown Mircophones => Unknown Tape Deck [Patch] => Nakamichi 550 [Dolby Encode] >> MAC
Analog Sound Preservation: MAC >> Nakamichi DR-1 => Grace Design Lunatec V3 [Pre-Only] => Korg MR-1000 >> DSF [1-bit 5.6448 MHz Stereo] >> Korg MR-1000 => Korg AudioGate >> WAV [24/96]
Taped By: Timothy Knight
Transfer By: Adam Egert
Mastering By: Kevin Tobin
---------------------------------------------------------
- Mixed by kevtobin@yahoo.com
- FLAC conversion 10-MAY-2008  
---------------------------------------------------------
Audio Patches:

1) At the beginning of soundboard, 11 minutes and 56.291 seconds were missing from the soundboard source and was filled in with audio from the audience source. This includes a Bobby joke while they waited to get Phil's bass started.

2) Between Good Lovin' and Dire Wolf, 13.013 seconds were missing from the soundboard source and was filled in with audio from the audience source.

3) Between Dire Wolf and El Paso, 1 minute and 01.201 seconds were missing from the soundboard source and was filled in with audio from the audience source.

4) Between El Paso and It Must Have Been The Roses, 06.233 seconds were missing from the soundboard source and was filled in with audio from the audience source.

5) Between It Must Have Been The Roses and Minglewood Blues, 16.811 seconds were missing from the soundboard source and was filled in with audio from the audience source.

6) Between Minglewood Blues and Ramble On Rose, 44.768 seconds were missing from the soundboard source and was filled in with audio from the audience source.

7) Between Ramble On Rose and Promised Land, 3 minutes and 01.306 seconds were missing from the soundboard source and was filled in with audio from the audience source.

8) At the beginning of the second set soundboard, 06.010 seconds were missing from the soundboard source and was filled in with audio from the audience source.

9) Between Ship Of Fools and Estimated Prophet, 14.755 seconds were missing from the audience source and was filled in with audio from the soundboard source.

10) 11 minutes and 40 seconds into Estimated Prophet, 09.855 seconds were missing from the audience source and was filled in with audio from the soundboard source.

11) 09 minutes and 54 seconds into Eyes Of The World, 44.700 seconds were missing from the soundboard source and was filled in with audio from the audience source.

12) At the start of Wharf Rat, 05.332 seconds were missing from the soundboard source and was filled in with audio from the audience source.

13) Between Sugar Magnolia and Terripan Station, 1 minutes and 30.000 seconds were missing from the soundboard source and was filled in with audio from the audience source.

14) Between One More Saturday Night and Werewolves Of London, 28.646 seconds were missing from the soundboard source and was filled in with audio from the audience source.

15) Soundboard was synced using the audience as the reference due to being more consisent and better known lineage.

Brokedown House Production

    length     expanded size    cdr  WAVE problems  fmt   ratio  filename
     8:24.36       88990316 B   ---   --   -----    wav  1.0000  gd1978-07-8d1t01.wav
     3:27.52       36637148 B   ---   --   -----    wav  1.0000  gd1978-07-8d1t02.wav
     6:41.58       70872860 B   ---   --   -----    wav  1.0000  gd1978-07-8d1t03.wav
     7:06.31       75219356 B   ---   --   -----    wav  1.0000  gd1978-07-8d1t04.wav
     5:08.68       54491180 B   ---   --   -----    wav  1.0000  gd1978-07-8d1t05.wav
     4:33.38       48246620 B   ---   --   -----    wav  1.0000  gd1978-07-8d1t06.wav
     7:48.22       82606988 B   ---   --   -----    wav  1.0000  gd1978-07-8d1t07.wav
     7:22.29       78037052 B   ---   --   -----    wav  1.0000  gd1978-07-8d1t08.wav
     8:02.17       85064828 B   ---   --   -----    wav  1.0000  gd1978-07-8d1t09.wav
     3:31.01       37222796 B   ---   --   -----    wav  1.0000  gd1978-07-8d1t10.wav
     4:57.30       52461404 B   ---   --   -----    wav  1.0000  gd1978-07-8d1t11.wav
     6:18.61       66822716 B   ---   --   -----    wav  1.0000  gd1978-07-8d1t12.wav
     7:55.13       83820620 B   ---   --   -----    wav  1.0000  gd1978-07-8d2t01.wav
     8:33.18       90535580 B   ---   --   -----    wav  1.0000  gd1978-07-8d2t02.wav
    12:41.12      134268668 B   ---   --   -----    wav  1.0000  gd1978-07-8d2t03.wav
     8:51.33       93746060 B   ---   --   -----    wav  1.0000  gd1978-07-8d2t04.wav
    11:07.09      117680012 B   ---   --   -----    wav  1.0000  gd1978-07-8d2t05.wav
     9:56.15      105169724 B   ---   --   -----    wav  1.0000  gd1978-07-8d2t06.wav
     5:55.67       62779628 B   ---   --   -----    wav  1.0000  gd1978-07-8d3t01.wav
     8:42.25       92139644 B   ---   --   -----    wav  1.0000  gd1978-07-8d3t02.wav
    10:45.12      113806268 B   ---   --   -----    wav  1.0000  gd1978-07-8d3t03.wav
    10:47.11      114156716 B   ---   --   -----    wav  1.0000  gd1978-07-8d3t04.wav
    10:44.21      113651036 B   ---   --   -----    wav  1.0000  gd1978-07-8d3t05.wav
     6:01.43       63781580 B   ---   --   -----    wav  1.0000  gd1978-07-8d3t06.wav
     6:48.44       72074732 B   ---   --   -----    wav  1.0000  gd1978-07-8d3t07.wav
   192:12.16     2034283532 B                            1.0000  (25 files)
ffp
gd1978-07-8d1t01.flac:381df05a60bd960825dea517904314e4
gd1978-07-8d1t02.flac:4242a17382673a628856072d509f2c52
gd1978-07-8d1t03.flac:43e2ad5c74c7885a66aa2da657438c01
gd1978-07-8d1t04.flac:5e03313e3282877306eaf3f592426433
gd1978-07-8d1t05.flac:edb667a7a2a9c96b8b1c1575dbcbc8df
gd1978-07-8d1t06.flac:d3ac6b29546ddeb6683f759af50de1a6
gd1978-07-8d1t07.flac:c064fed31175ed7306edfde707c85124
gd1978-07-8d1t08.flac:6243b3fd795a13e4d4667d4d2cf56da8
gd1978-07-8d1t09.flac:a95a809c74a11a79e510031b3ace0ac9
gd1978-07-8d1t10.flac:b2805abe27cdcd9052c7ba169fa04a7e
gd1978-07-8d1t11.flac:98b4178422ec1a99ec890ea22d786c74
gd1978-07-8d1t12.flac:9b3ef022977dc490906046ddec34b3ed
gd1978-07-8d2t01.flac:7a3a1464bb563fd1da9ed204247dc076
gd1978-07-8d2t02.flac:48aa5e83cd4c63f3482da76f7c6cd58a
gd1978-07-8d2t03.flac:e93a4d8a7843fa0d94342e91de2a68f8
gd1978-07-8d2t04.flac:1022db7490432acd774169f347b06aae
gd1978-07-8d2t05.flac:b67c75f3998809a2fa1b4ec8b683adcb
gd1978-07-8d2t06.flac:2051187193eb0765baea876132fd7769
gd1978-07-8d3t01.flac:35fa6a06b5b13f44a3dd8851eede90ee
gd1978-07-8d3t02.flac:74028fa6d7d299f1c640b952bfd74a91
gd1978-07-8d3t03.flac:8bec51615fc81ee07ad3301e44f14ae0
gd1978-07-8d3t04.flac:b4888c06456af99598569930e040de79
gd1978-07-8d3t05.flac:8715265c4c9c84af3e20f0ad55349ea1
gd1978-07-8d3t06.flac:54d7f634bf29d8f99f6741110e0bcea3
gd1978-07-8d3t07.flac:c1279d988d04ee4471272aadf65d27d5
2dfb042b967a4b56dc0f191ec0da365a *gd1978-07-8d1t01.flac
ee580310d6cc53f3aa4dfe1601f09adb *gd1978-07-8d1t02.flac
7ec61bd5708f3aea850fa28601bb44f3 *gd1978-07-8d1t03.flac
25b73c98e9c0ed07f2540b334b29cb28 *gd1978-07-8d1t04.flac
e7ede4f524d1732efa4cb33f4e390ff7 *gd1978-07-8d1t05.flac
4a0b341d64d49ea78941c0a5f6532bbc *gd1978-07-8d1t06.flac
9703c04b13a0276debdaf8368847d8f0 *gd1978-07-8d1t07.flac
9b6661a46ecf8cb636fc7352266f0fee *gd1978-07-8d1t08.flac
3c90a3afae832fcc05dffe4a3faefdf5 *gd1978-07-8d1t09.flac
04fdeda483b67d770614b4231ed5d8c1 *gd1978-07-8d1t10.flac
3bde6544bc4bc6dddcf2b752f80ae07f *gd1978-07-8d1t11.flac
a3133d7610e86db32839029a5bcd7f3f *gd1978-07-8d1t12.flac
88eb00d45211c31be24c4325d10b6a97 *gd1978-07-8d2t01.flac
9f972b0665e154d71ae4b521c856cf91 *gd1978-07-8d2t02.flac
5c1abf348a2e42e7de897d39e98dc66b *gd1978-07-8d2t03.flac
2860ea357619daaa2c97ca080dffd660 *gd1978-07-8d2t04.flac
4f51baf17df434afe35ddff66bc4483f *gd1978-07-8d2t05.flac
4ac1f4bf112845b3043928e8da73aebd *gd1978-07-8d2t06.flac
2ebf403ca72bc0ffe3bc95a7fe0c5231 *gd1978-07-8d3t01.flac
20bb5efac4dc82534524833ca1019849 *gd1978-07-8d3t02.flac
0483e0a905641c7b29f233bc8f71e427 *gd1978-07-8d3t03.flac
2f379cac190fbc731a5b9965b30cd23b *gd1978-07-8d3t04.flac
d7d81e9ef205fba3a5efe56a51987956 *gd1978-07-8d3t05.flac
d59c65d6d65279a3de4abbb0888ad6b7 *gd1978-07-8d3t06.flac
d90d2a1e578dc409f3ed27171e48527e *gd1978-07-8d3t07.flac

Comments
etreedb.org
For administrative requests email contact@etreedb.org
This website written by Tom H Anderson and maintained by the etreedb.org community.

Cached: Wed, 16 Oct 2019 18:35:51 EDT