Grateful Dead 10/21/78
Winterland Arena, San Francisco, CA
Source Summary
flac16; Recorded by: Mike Martin and Mark Bunton. Our location was on the floor under the mirrored ball about 20-25 feet from the stage dead center. Equipment: 2 Sony ecm-280 microphones (shoulder high) > Teac PC-10 w/ Dolby > TDK SA-C90 tape. Transfer: Nakamichi CR3A w/ Dolby > Audigy 4 Pro @ 24/44.1 > Editing with NERO > Tracked With CD Wave > Dithered to 16 bit with Audacity > Flac (level 8)
The GRATEFUL DEAD
Live at the Winterland Ballroom
San Francisco, California
Saturday  October 21, 1978

Recorded by:
Mike Martin and Mark Bunton.
Our location was on the floor under the mirrored ball about 20-25 feet from the stage dead center.

Equipment:
2 Sony ecm-280 microphones (shoulder high) > Teac PC-10 w/ Dolby > TDK SA-C90 tape

Transfer:
Nakamichi CR3A w/ Dolby > Audigy 4 Pro @ 24/44.1 > Editing with NERO > Tracked With CD Wave > Dithered to 16 bit with Audacity > Flac (level 8)


-first set-

01. Mickey Hart Introduction
02. Unknown song title
03. Unknown song title
04. Olin Arageed
05. Promised Land
06. Sugaree
07. Passenger
08. Ramble On Rose
09. Looks Like Rain
10. Stagger Lee
11. I Need A Miracle

-second set-

01. Bertha
02. Good Lovin
03. It Must Have Been The Roses
04. Estimated Prophet
05. He's Gone
06. Drums
07. Jam
08. Got My Mojo Working
09. The Other One
10. Stella Blue
11. Sugar Magnolia
12. Sunshine Daydream
-encore-
13. US Blues

Notes:

The tape was flipped during Drums (disc 3 track 1 at 9:46).
The tape was again flipped in the Sugar Magnolia > Sunshine Daydream transition.
To fill in the missing section 5 seconds from an alternate source recorded by Reinhart Hohlwein  (disc 3 track 7 from 0:01 to 0:06) was inserted.
These breaks were spliced together with NERO wave editor.
NERO wave editor was also used to make volume adjustments and to surgically remove distracting 'claps' one at a time.
Finally Audacity was used to dither the files to 16 bit and the FLAC conversion was performed at level 8.
As a note, the Sony ecm-280 cardiod microphone specification page describes the frequency response as 30 to 18KHz.
No Eq or Noise reduction used.
There is a slight fluttering noise in the master cassettes during the quieter sections.
Thanks to John Musgrave for the use of his recording equipment.
Thanks to Bill Fridl for the permission to use his nice photos from these shows
Mike Martin September 2009


Pictures - 1978 Bill Fridl.
For more Information visit: http://www.grateful-dead-photos.com/shows.html


instructions for making a 3 CD thick jewel box from the supplied artwork:
Size front and back cover artwork to 4.63 X 6.00 inches.
Size both of the inserts to 4.75 X 4.75 and line up the two side by side, then cut out and fold.


shntool 3.0.4
Copyright (C) 2000-2007 Jason Jordan

    length     expanded size    cdr  WAVE problems  fmt   ratio  filename
     1:03.46       11221436 B   ---   --   ---xx   flac  0.5484  gd1978-10-21-d1tr01.flac
     3:06.21       32859836 B   ---   --   ---xx   flac  0.5010  gd1978-10-21-d1tr02.flac
     3:05.45       32739884 B   ---   --   ---xx   flac  0.4874  gd1978-10-21-d1tr03.flac
    18:07.05      191758604 B   ---   --   ---xx   flac  0.5370  gd1978-10-21-d1tr04.flac
     7:01.59       74403212 B   ---   --   ---xx   flac  0.5954  gd1978-10-21-d1tr05.flac
    16:27.43      174207980 B   ---   --   ---xx   flac  0.5376  gd1978-10-21-d1tr06.flac
     6:07.25       64797644 B   ---   --   ---xx   flac  0.5936  gd1978-10-21-d1tr07.flac
     9:02.10       95632364 B   ---   --   ---xx   flac  0.5674  gd1978-10-21-d1tr08.flac
    11:38.66      123282476 B   ---   --   ---xx   flac  0.5331  gd1978-10-21-d2tr01.flac
     9:29.03      100378700 B   ---   --   ---xx   flac  0.5711  gd1978-10-21-d2tr02.flac
     8:13.25       87024044 B   ---   --   ---xx   flac  0.6234  gd1978-10-21-d2tr03.flac
     7:08.07       75515708 B   ---   --   ---xx   flac  0.6524  gd1978-10-21-d2tr04.flac
     9:39.54      102262652 B   ---   --   ---xx   flac  0.6190  gd1978-10-21-d2tr05.flac
     8:16.26       87555596 B   ---   --   ---xx   flac  0.5098  gd1978-10-21-d2tr06.flac
    14:38.20      154926284 B   ---   --   ---xx   flac  0.5830  gd1978-10-21-d2tr07.flac
    10:35.23      112068140 B   ---   --   ---xx   flac  0.5276  gd1978-10-21-d2tr08.flac
    14:56.48      158167340 B   ---   --   ---xx   flac  0.5618  gd1978-10-21-d3tr01.flac
     5:38.46       59731436 B   ---   --   ---xx   flac  0.6070  gd1978-10-21-d3tr02.flac
     7:26.73       78846140 B   ---   --   ---xx   flac  0.6708  gd1978-10-21-d3tr03.flac
     7:18.03       77270300 B   ---   --   ---xx   flac  0.6383  gd1978-10-21-d3tr04.flac
    11:55.65      126278924 B   ---   --   ---xx   flac  0.5582  gd1978-10-21-d3tr05.flac
     5:35.37       59181068 B   ---   --   ---xx   flac  0.6637  gd1978-10-21-d3tr06.flac
     4:37.36       48947516 B   ---   --   ---xx   flac  0.5819  gd1978-10-21-d3tr07.flac
     6:03.07       64049708 B   ---   --   ---xx   flac  0.6648  gd1978-10-21-d3tr08.flac
   207:12.43     2193106992 B                            0.5765  (24 files)


fa396fce35f7fa780e1f1a0ffa5fae11 *gd1978-10-21-d1tr01.flac
51756cce589a2fbcd08ed392479fb653 *gd1978-10-21-d1tr02.flac
7280deb63ac71a033b004d90f95a4ece *gd1978-10-21-d1tr03.flac
94e842bea0780d8e419733843ac2e2cb *gd1978-10-21-d1tr04.flac
e31a274a36bc6f580b02523b0e720f4f *gd1978-10-21-d1tr05.flac
978ffdab425223770ae7a6ae0833dad9 *gd1978-10-21-d1tr06.flac
8f35abc63daaa32ad61e4e427afe112a *gd1978-10-21-d1tr07.flac
594e338ad7c1fe04ac70f38454250410 *gd1978-10-21-d1tr08.flac
a516fcf0ff158dbaffbc81ed54dc9c0d *gd1978-10-21-d2tr01.flac
4772c6665191f7aacec93191892698cd *gd1978-10-21-d2tr02.flac
a5266e5d5aa83e5b81ce5fe640cd837d *gd1978-10-21-d2tr03.flac
2056c3b3571e0f323065dec9e541d4e3 *gd1978-10-21-d2tr04.flac
bd7ae1aee701975a2c6cd95534da6420 *gd1978-10-21-d2tr05.flac
1512c3c7665893b816f5fcdb1fdeb6b2 *gd1978-10-21-d2tr06.flac
8d947b43635706e9dfbf5434f1b79b92 *gd1978-10-21-d2tr07.flac
dde63e698a6de315933203b273e58166 *gd1978-10-21-d2tr08.flac
4fbeed94914f42fcc617e41fde0793f8 *gd1978-10-21-d3tr01.flac
54ef1b99c49ddc48c58747edca4779d8 *gd1978-10-21-d3tr02.flac
a80b2777328e7881ed06199355b9c851 *gd1978-10-21-d3tr03.flac
f56d9186eef3c87d525a00c83d93664f *gd1978-10-21-d3tr04.flac
367d0f0e8b92bf38397a894b6e8f4316 *gd1978-10-21-d3tr05.flac
3a2e14b03cb9e03ad46c481b4fbfb24c *gd1978-10-21-d3tr06.flac
085d2100b403d01683d666306dcd3890 *gd1978-10-21-d3tr07.flac
81259f810774ac704fc6f62b7991ca83 *gd1978-10-21-d3tr08.flac
ffp
gd1978-10-21-d1tr01.flac:1d4bdfaf7aac32e848514e4efa7fa61f
gd1978-10-21-d1tr02.flac:5fa8d602cd4824fb2d2190b404d1d7b2
gd1978-10-21-d1tr03.flac:a5af3a94e893f8af036a0a0970ce7136
gd1978-10-21-d1tr04.flac:2b24bf8f8c6b703b5c29d946733748c4
gd1978-10-21-d1tr05.flac:3e770bf748d8ce83bc89b6b11290ec82
gd1978-10-21-d1tr06.flac:eba18c10f5661271275858228e3b98aa
gd1978-10-21-d1tr07.flac:6ce67331a4ee21037b8825e332e558a4
gd1978-10-21-d1tr08.flac:a7063664611c007068e7c0af8d4cafea
gd1978-10-21-d2tr01.flac:dbda8fa6e6f2b069581191c9ea0a2054
gd1978-10-21-d2tr02.flac:0292ce7a2f32afe524894529eab83fee
gd1978-10-21-d2tr03.flac:65851a493452311fa085e517672b5136
gd1978-10-21-d2tr04.flac:d475e12dc781d6429b0b993df49db22a
gd1978-10-21-d2tr05.flac:92856bffcbf343e28c2a706263bd5e65
gd1978-10-21-d2tr06.flac:dc6b950727389e2e50a949dae697be55
gd1978-10-21-d2tr07.flac:76a45afe97b60306dab296d640f26e6c
gd1978-10-21-d2tr08.flac:a09e51001936e2f748d104d597668bff
gd1978-10-21-d3tr01.flac:70e153d62b4e47ba8fb966e3531aa119
gd1978-10-21-d3tr02.flac:971da1d8eade69a391cdc55fbb10fb79
gd1978-10-21-d3tr03.flac:1bb47fb61f10ae9ac79e386a84285789
gd1978-10-21-d3tr04.flac:91d6c835678cc4341ae87e051479948c
gd1978-10-21-d3tr05.flac:d97f7a4cd16cc6bfdea361e60d2eef86
gd1978-10-21-d3tr06.flac:b770b5a1b786c9911e105c470ffd45c8
gd1978-10-21-d3tr07.flac:d73a5520b343e5efa1d3a5f3d81efac8
gd1978-10-21-d3tr08.flac:f90284caad70a14bca468ead959b33ac

Comments
etreedb.org
For administrative requests email contact@etreedb.org
This website written by Tom H Anderson and maintained by the etreedb.org community.

Cached: Tue, 24 Nov 2020 16:06:55 EST