Grateful Dead 10/21/78
Winterland Arena, San Francisco, CA
Source Summary
flac16; Matrix by Hunter Seamons using Final Cut Pro (FLAC>AIFF>Final Cut>WAV>FLAC)
Grateful Dead
Winterland Arena
San Francisco, CA
October 21, 1978

"From Egypt with Love"

Jerry Garcia - Lead Guitar, Vocals
Donna Jean Godchaux - Vocals
Keith Godchaux - Keyboards
Mickey Hart - Drums
Bill Kreutzmann - Drums
Phil Lesh - Electric Bass, Vocals
Bob Weir - Rhythm Guitar, Vocals



***30th Anniversary Matrix***

----------------------------------------------------
SBD:

Recording Info:
SBD -> Master Reel -> Reel -> Dat (44.1k)

Transfer Info:
Dat (Sony R500) -> Sound Devices 744T -> Samplitude Professional v9.12 -> FLAC
(3 Discs Audio / 2 Discs FLAC)

All Transfers and Mastering By Charlie Miller
charliemiller87@earthlink.net
January 28, 2008

[Cuts:]

Sugaree (11:40 - 12:54)
He's Gone (7:41 - 9:58)
Stella Blue (10:18 - end of track)
Sugar Magnolia (0:00 - 0:21)

Notes:
-- All disc changes are seamless
-- Some in between song tuning supplied by shnid=6100
-- Numerous spots of diginoise in I Need A Miracle patched with shnid=6100
-- Many flaws cleaned up

----------------------------------------------------
AUD:

MOTB Release: 0015 16/44.
Release Date: 2008-09-25
Analog Audience Source: Aud Master Cassettes (MAC)
Medium Stock Brands: MAC = 3 x Maxell UDXL II
Analog Lineage: 2 x  AKG d224e => Sony TC 158 >> MAC
Analog Sound Preservation: MAC >> Nakamichi CR7a => Korg MR-1000 >> DSF [1-bit 5.6448 MHz Stereo] >> Korg MR-1000 => Korg AudioGate >> WAV [24/96]
Taped By: Reinhart Hohlwein
Transfer By: Bob Menke
Mastering By: Derek McCabe
Tagged by: Jeff Thomas
Special: Rhinotrocity #5

[Cuts:]

"He's Gone" patched at 3:43 - 4:07
"Stella Blue" patched at 0:03 - 0:12
"Sugar Magnolia" patched at 7:44 - 8:24

---------------------------------------------------
Thank you to Charlie Miller for the SBD transfer,
to Reinhart Hohlwein for recording the show,
and to Bob Menke, Derek McCabe, and Jeff Thomas for the AUD transfer.

Matrix by Hunter Seamons using Final Cut Pro (FLAC>AIFF>Final Cut>WAV>FLAC)
September 28, 2008


Set I
-----
d1t01 - Introduction
d1t02 - Hamza el Din Song #1
d1t03 - Hamza el Din Song #2
d1t04 - Ollin Arrageed ->
d1t05 - The Promised Land
d1t06 - Sugaree
d1t07 - Passenger
d1t08 - Ramble On Rose
d1t09 - Looks Like Rain
d1t10 - Stagger Lee
d2t01 - I Need A Miracle

Set II
-----
d2t02 - Tuning
d2t03 - Bertha ->
d2t04 - Good Lovin'
d2t05 - It Must Have Been The Roses
d2t06 - Estimated Prophet ->
d2t07 - He's Gone ->
d2t08 - Drums* ->
d3t01 - Space* ->
d3t02 - Got My Mojo Workin'* ->
d3t03 - The Other One ->
d3t04 - Stella Blue ->
d3t05 - Sugar Magnolia*

Encore
------
d3t06 - U.S. Blues

*with Lee Oskar on harp


Notes:

1) There were occasional, brief "phasing" sounds in the SBD, yet not in the AUD, particularly during Hamza el Din Song #1, Promised Land (and after the song), and I Need a Miracle. Most of this seems to be from Miller's patching of the source with SHNID 6100, which sounded differently when mixed with the AUD, or on it's own.

2) There is a noticeable tonal shift in the AUD during Hamza el Din Song #1 from the mic being moved around.

3) There were cuts in the SBD and AUD between songs, whereupon only one source plays in the matrix.

4) Interestingly, Lee Oskar's harp is more audible on the AUD than the SBD, which is good.

5) As noted above, unfortunate cuts in the AUD right after a stellar Other One and a raging Sugar Magnolia, so the roaring crowd is just a little low during those parts. Cut in the AUD for the tail end of the recording as well.


    length     expanded size    cdr  WAVE problems  fmt   ratio  filename
     1:08.02       11999948 B   ---   --   ---xx  gd78-10-21d1t01.flac
     3:41.37       39071468 B   ---   --   ---xx  gd78-10-21d1t02.flac
     3:08.56       33294956 B   ---   --   ---xx  gd78-10-21d1t03.flac
    18:33.04      196342652 B   ---   --   ---xx  gd78-10-21d1t04.flac
     6:23.46       67669436 B   ---   --   ---xx  gd78-10-21d1t05.flac
    14:44.18      155979980 B   ---   --   ---xx  gd78-10-21d1t06.flac
     4:59.59       52882412 B   ---   --   ---xx  gd78-10-21d1t07.flac
     7:45.50       82143644 B   ---   --   ---xx  gd78-10-21d1t08.flac
    10:03.26      106430396 B   ---   --   ---xx  gd78-10-21d1t09.flac
     7:42.42       81595628 B   ---   --   ---xx  gd78-10-21d1t10.flac
     7:52.45       83366684 B   ---   --   ---xx  gd78-10-21d2t01.flac
     0:45.51        8057996 B   ---   --   ---xx  gd78-10-21d2t02.flac
     7:08.17       75539228 B   ---   --   ---xx  gd78-10-21d2t03.flac
     9:09.01       96845996 B   ---   --   ---xx  gd78-10-21d2t04.flac
     8:01.02       84853148 B   ---   --   ---xx  gd78-10-21d2t05.flac
    14:42.38      155674220 B   ---   --   ---xx  gd78-10-21d2t06.flac
    10:11.19      107825132 B   ---   --   ---xx  gd78-10-21d2t07.flac
    16:01.69      169682732 B   ---   --   ---xx  gd78-10-21d2t08.flac
     1:51.71       19747436 B   ---   --   ---xx  gd78-10-21d3t01.flac
    10:47.74      114304892 B   ---   --   ---xx  gd78-10-21d3t02.flac
     7:31.09       79577612 B   ---   --   ---xx  gd78-10-21d3t03.flac
    11:54.38      126039020 B   ---   --   ---xx  gd78-10-21d3t04.flac
     8:58.26       94964396 B   ---   --   ---xx  gd78-10-21d3t05.flac
     6:08.53       65039900 B   ---   --   ---xx  gd78-10-21d3t06.flac
   199:15.28     2108928912 B                            0.6009  (24 files)


ffp
gd78-10-21d1t01.flac:b045b844e12dbedddb24a3ae4d26d5dd
gd78-10-21d1t02.flac:fd693f900ee1072ae8bae9854a136be2
gd78-10-21d1t03.flac:b6d8740cf2d701a719963cd81f3c35a7
gd78-10-21d1t04.flac:c7c9a58ac3f462c25bd23a18d9dba6f6
gd78-10-21d1t05.flac:802b810dadaa937ac6688bf92ff86550
gd78-10-21d1t06.flac:e1e9a50ecc40e58f669368dc589246ee
gd78-10-21d1t07.flac:dcfd31c444c5baba3fd502a7eb405b58
gd78-10-21d1t08.flac:1f7d1844e441e9c4a878bcc38b0be05a
gd78-10-21d1t09.flac:360c8ba6e2ae4a962f31febdc8247c7b
gd78-10-21d1t10.flac:9478f61d92966ce32c0429081f629269
gd78-10-21d2t01.flac:a44b404ebc45dc4ceceecf6b294542f6
gd78-10-21d2t02.flac:c72fdcd7e76ecbc97bc53f4fcbefa87e
gd78-10-21d2t03.flac:0c89b73b4eeb91fb39d63f17727b1321
gd78-10-21d2t04.flac:a36236509874e42d00e225d5df98b810
gd78-10-21d2t05.flac:2babf0e032eb795b23c11dd53e9705f9
gd78-10-21d2t06.flac:62cf6b59ffcd8065a94a6836d6529ddd
gd78-10-21d2t07.flac:27689c17e7626319f8608e2843155bd4
gd78-10-21d2t08.flac:213945cad54821386e6437b32a8370cb
gd78-10-21d3t01.flac:361cabf234c4f4957eb34ffe52e29d87
gd78-10-21d3t02.flac:8ce04a215e7126ed5926dc86068fb504
gd78-10-21d3t03.flac:88f8271de19a5f3c0ea3e1da633c2b21
gd78-10-21d3t04.flac:6eac12711927b058aa0ab08869ac7be1
gd78-10-21d3t05.flac:8996e23367714602c0e89aa8ceb9c4fb
gd78-10-21d3t06.flac:898695b0e641d6d455fac68e4c68b9a9
da800204ac4f9c941e339717f2b7ab14 *gd78-10-21d1t01.flac
55809e5af54cf9d0bea17369db69135c *gd78-10-21d1t02.flac
92ce880f7f7282f3027096596edf30bf *gd78-10-21d1t03.flac
d46fe68a213be011c289282e29ddd440 *gd78-10-21d1t04.flac
b244928e26079f82cdc083b04b9e458d *gd78-10-21d1t05.flac
e4f8f221c045a625eb74ee9082396c28 *gd78-10-21d1t06.flac
e045f330ef1e9b128e177bce31d7fadd *gd78-10-21d1t07.flac
dcb9529943b370e246df144e86bcee03 *gd78-10-21d1t08.flac
c2a797c76020b6c889765ef2c936395e *gd78-10-21d1t09.flac
fb48d3cc7db0be7a967b4aa62dcf1fb4 *gd78-10-21d1t10.flac
1d28603090c76f83d9009ec271a0f97a *gd78-10-21d2t01.flac
fec2f6e988858e26bb108bb7649c1263 *gd78-10-21d2t02.flac
54c7f87c3997df4c97177228e58eb894 *gd78-10-21d2t03.flac
e02fffb9937155faae7d3ad7dd4d578a *gd78-10-21d2t04.flac
ece063cd34b0245d1122d818be13ba60 *gd78-10-21d2t05.flac
db4febb1f6cd5e94b3b1d90fd6be7170 *gd78-10-21d2t06.flac
663c67b9b95f5fa34f575e601359dc23 *gd78-10-21d2t07.flac
29b958dea003c98f59af7791c4ecc930 *gd78-10-21d2t08.flac
8f10936a5f665fc920985d525f594d32 *gd78-10-21d3t01.flac
2b836441efc0f33f245a611d41808619 *gd78-10-21d3t02.flac
b5eeadc7432fdad22074c0073ab6edd8 *gd78-10-21d3t03.flac
ffa37e8440017ea0fa8cfc7903348d22 *gd78-10-21d3t04.flac
a9d1c181319914b67b0b5db0a14d02c5 *gd78-10-21d3t05.flac
6801e09b2d05103997173efb77da67ea *gd78-10-21d3t06.flac

Comments
etreedb.org
For administrative requests email contact@etreedb.org
This website written by Tom H Anderson and maintained by the etreedb.org community.

Cached: Tue, 17 Sep 2019 13:23:14 EDT