Grateful Dead 11/20/78
Cleveland Music Hall, Cleveland, OH
Source Summary
flac16; Source: Unknown AUD (marked 4th gen) kindly provided by Seaweed1010. Transfer: XLIIS > Nakamichi DR-2 > Edirol FA-66 > Wavelab > CD-Wave > R8Brain > TLH > FLAC 1644 tagged. Transfer by Andrew F. December 2011
GRATEFUL DEAD
Music Hall
Cleveland OH
11-20-1978
Set One & Start of Set Two

s1t01 Mississippi Half Step >
s1t02 Franklin's Tower
s1t03 Mama Tried >
s1t04 Mexicali Blues
s1t05 It Must Have Been the Roses
s1t06 //Looks Like Rain
s1t07 Stagger Lee
s1t08 Passenger
s1t09 Peggy-O
s1t10 Lazy Lightnin' >
s1t11 Supplication
s1t12 Phil's set-break announcement

s2t01 Jam >
s2t02 Drums >
s2t03 Jam >
s2t04 Jackaroe

Source: Unknown AUD (marked 4th gen) kindly provided by Seaweed1010.

Transfer: XLIIS > Nakamichi DR-2 > Edirol FA-66 > Wavelab > CD-Wave >
R8Brain > TLH > FLAC 1644 tagged. Transfer by Andrew F. December 2011

Notes: Thanks to Seaweed for the unknown AUD, provides Set One and
the start of Set Two (does not match ID-302). LLR cuts in at start
of vocals. There's some hiss, and the sound is somewhat degraded...
hopefully someone can upgrade this with a more complete and better
sounding version...

    length     expanded size    cdr  WAVE problems  fmt   ratio  filename
     9:42.36      102749516 B   ---   --   ---xx   flac  0.5216  gd1978-11-20s1t01.flac
    13:23.01      141651596 B   ---   --   ---xx   flac  0.5232  gd1978-11-20s1t02.flac
     2:34.58       27302060 B   ---   --   ---xx   flac  0.5316  gd1978-11-20s1t03.flac
     4:09.25       43982444 B   ---   --   ---xx   flac  0.5317  gd1978-11-20s1t04.flac
     7:51.08       83103260 B   ---   --   ---xx   flac  0.5043  gd1978-11-20s1t05.flac
     8:09.48       86372540 B   ---   --   ---xx   flac  0.5015  gd1978-11-20s1t06.flac
     7:44.41       81946076 B   ---   --   ---xx   flac  0.5138  gd1978-11-20s1t07.flac
     4:54.21       51911036 B   ---   --   ---xx   flac  0.5230  gd1978-11-20s1t08.flac
     9:44.22      103069388 B   ---   --   ---xx   flac  0.4925  gd1978-11-20s1t09.flac
     3:41.46       39092636 B   ---   --   ---xx   flac  0.5185  gd1978-11-20s1t10.flac
     5:56.34       62878412 B   ---   --   ---xx   flac  0.5208  gd1978-11-20s1t11.flac
     0:35.12        6202268 B   ---   --   ---xx   flac  0.5050  gd1978-11-20s1t12.flac
     9:36.38      101695820 B   ---   --   ---xx   flac  0.5441  gd1978-11-20s2t01.flac
     2:43.54       28880252 B   ---   --   ---xx   flac  0.5485  gd1978-11-20s2t02.flac
     3:37.51       38398796 B   ---   --   ---xx   flac  0.5307  gd1978-11-20s2t03.flac
     5:03.19       53493932 B   ---   --   ---xx   flac  0.5137  gd1978-11-20s2t04.flac
    99:27.64     1052730032 B                            0.5187  (16 files)

No errors occured.
76d42290f765b1546b6bda2a419852be *gd1978-11-20s1t01.flac
e2d4d3858775879e19a4a81610322de5 *gd1978-11-20s1t02.flac
1af9578afdbd6741074185f60ffb2ef8 *gd1978-11-20s1t03.flac
e5f257194ae31ef96d7a65bd8978b4f4 *gd1978-11-20s1t04.flac
fe8b3ee116f22251ea9da3f7337fc775 *gd1978-11-20s1t05.flac
af24fd3a877ab2ebcd056e55a0aa70de *gd1978-11-20s1t06.flac
9850ae3ac16c0070ebb8f3e85d7e8d7b *gd1978-11-20s1t07.flac
a428e19b45bf9e699b6dd97ee1928f29 *gd1978-11-20s1t08.flac
e492123911012e209213680b22421b7b *gd1978-11-20s1t09.flac
0e18f84e3e9ddf8688e7e760347431d5 *gd1978-11-20s1t10.flac
c4fae4c25c3397206eec14d692f8f6a2 *gd1978-11-20s1t11.flac
e9f6b2b1814c7fb1299342a273d5cb6b *gd1978-11-20s1t12.flac
fd29f78fb7c092235dfc672d74252a90 *gd1978-11-20s2t01.flac
d780946d893b9ac2431aee04ce6e3f33 *gd1978-11-20s2t02.flac
642f20dfd47293a764df4edd234cb446 *gd1978-11-20s2t03.flac
676d6470730027e45e684764164c480d *gd1978-11-20s2t04.flac
ffp
gd1978-11-20s1t01.flac:24bbac3785acbf6632cc0e8e25d1dc47
gd1978-11-20s1t02.flac:99a2278a929efc8c6791f350b11851b6
gd1978-11-20s1t03.flac:1e383e34b824fa4636283f8dc9b1e660
gd1978-11-20s1t04.flac:43d4365a94b5b58d35075e05a335fe59
gd1978-11-20s1t05.flac:ef86d5db235bf873dfde6c8e04b4923a
gd1978-11-20s1t06.flac:76893c2c9ba682de3eb49b320fb85df3
gd1978-11-20s1t07.flac:316e40b076f7cbeadc7b300721850030
gd1978-11-20s1t08.flac:088f0cc4bb982c00cb44af585c92adbe
gd1978-11-20s1t09.flac:66b1918351c955603981389f6ad7e666
gd1978-11-20s1t10.flac:c281ecbbaf332e68cf5125fc6c847ded
gd1978-11-20s1t11.flac:f6c22196d4e7f0bd9d4189f0b85f0b7f
gd1978-11-20s1t12.flac:c40e68bdadef6983256078e3db7f5a70
gd1978-11-20s2t01.flac:e279d61d796b71d7753e5b7ee4065c5a
gd1978-11-20s2t02.flac:b525b67ce32ab0107cb67345348e078a
gd1978-11-20s2t03.flac:c3b966aa00986e495e119fa78b0a00be
gd1978-11-20s2t04.flac:6f04715319d6632a14e60e842dcd48cb

Comments
etreedb.org
For administrative requests email contact@etreedb.org
This website written by Tom H Anderson and maintained by the etreedb.org community.

Cached: Wed, 16 Oct 2019 18:00:27 EDT