Grateful Dead 11/24/78
Capitol Theatre, Passaic, NJ
Source Summary
flac16; Source: Pre-fm master reel (The Best Of The Biscuit) Lineage: Reel > Teac-X2000R > Korg MR1 1bit/2.8mhz > AudioGate > wav 24/96 > flac 24
Grateful Dead
Capitol Theater
Passaic, NJ
11/24/1978

Source: Pre-fm master reel (The Best Of The Biscuit)
Lineage: Reel > Teac-X2000R > Korg MR1 1bit/2.8mhz > AudioGate > wav 24/96 > flac 24

01   KBFH intro >
02   GD intro > Passenger
03   Sugaree
04   I Need a Miracle >
05   Good Lovin'


Notes:

- other than maximise the levels with iZotope Ozone 4, no other audio processing has been carried out.
- product advertising has been removed
- This file set is 16 bit


Comments:

My good friend, John Bleich, was given two reels from a friend at WVBU.  Unfortunately both reels turned
out to have the same contents, give or take.

Although there isn't much of the show here, I believe that this is the best quality available for these tracks, no
24 bit versions have previously been circulated.

NB: Passenger and Sugaree are in reverse order to how they were actually performed but this is the way reel
        was put together.




Thanks to John for providing the reels and John-Jay Hance, who baked the reels and transferred them.

edited by SIRMick
October 2009


shntool ouput:

    length     expanded size    cdr  WAVE problems  fmt   ratio  filename
     0:44.13        7792220 B   ---   --   ---xx   flac  0.6113  gd1978-11-24t01.flac
     6:03.58       64169660 B   ---   --   ---xx   flac  0.6349  gd1978-11-24t02.flac
    13:18.69      140929532 B   ---   --   ---xx   flac  0.5949  gd1978-11-24t03.flac
     4:26.53       47047100 B   ---   --   ---xx   flac  0.6432  gd1978-11-24t04.flac
     6:49.29       72215852 B   ---   --   ---xx   flac  0.6479  gd1978-11-24t05.flac
    31:22.72      332154364 B                            0.6214  (5 files)


ffp
gd1978-11-24t01.flac:e1f5ae2b84fdfee42b810dfbd6f21644
gd1978-11-24t02.flac:73852fc61154bf50b78e3d077980b8ce
gd1978-11-24t03.flac:9a481f692e13e74a5f2341dfcb8b7c9a
gd1978-11-24t04.flac:dd6f5546e1b2e8c821b27301f460e981
gd1978-11-24t05.flac:1b4736891461e4d7dc930a6c6a54eafe
0e118a3c7a267accf62e364073d99224 *gd1978-11-24t01.flac
dc94055fa4f04be0f4e85be559dc71d7 *gd1978-11-24t02.flac
4873d5a4285f43f79e2ba1784f06ab00 *gd1978-11-24t03.flac
42c037405f43f0aa9d9b03438fd2265c *gd1978-11-24t04.flac
b922f77bb417fedf6f5902b212fc7849 *gd1978-11-24t05.flac

Comments
etreedb.org
For administrative requests email contact@etreedb.org
This website written by Tom H Anderson and maintained by the etreedb.org community.

Cached: Wed, 16 Oct 2019 17:49:10 EDT