Grateful Dead 01/17/78
Sacramento Memorial Auditorium, Sacramento, CA
Source Summary
flac16; Source Info: Master Soundboard Reels > Cassette > Dat > CD > EAC > SHN (shnid 14555); This is a patched and re-mastered version of the shnid14555 soundboard source from Matt Vernon & JCotsman
Grateful Dead
Memorial Auditorium
Sacramento, California
Tuesday January 17, 1978

Source Info:
Master Soundboard Reels > Cassette > Dat > CD > EAC > SHN (shnid14555)

Notes:
- This is a patched and re-mastered version of the shnid14555 soundboard source from Matt Vernon & JCotsman
- Thanks to the folks responsible for the AKG D224E audience source which supplies a 0:07 and 0:03 patch in "Promised Land", a 0:14 patch in "Cassidy" as well as from 3:28 of "Truckin'" thru the end of the show. The end of "Truckin'" and beginning of "Around & Around" are missing on the AKG D224E source ( ~ 0:30 or so missing)
- Anomalies at 6:36 of "Row Jimmy" and 4:15 of "He's Gone" have been repaired
- Jam after "He's Gone" with Keith, Billy and Mickey, Keith leaves and Jerry comes out and noodles for a bit with Billy and Mickey before "Drums"

Edited & Re-Mastered by Scott Clugston
February 22, 2018

Set One:
t01 - Promised Land
t02 - Dire Wolf
t03 - Cassidy
t04 - Loser
t05 - Looks Like Rain
t06 - Tuning
t07 - Row Jimmy
t08 - New Minglewood Blues
t09 - It Must Have Been The Roses
t10 - The Music Never Stopped

Set Two:
t11 - Bertha >
t12 - Good Lovin'
t13 - Tuning
t14 - Candyman
t15 - Tuning
t16 - Estimated Prophet >
t17 - He's Gone >
      Jam >
t18 - Drums >
t19 - The Other One >
t20 - Black Peter >
t21 - Truckin'//
t22 - //Around & Around
Encore:
t23 - US Blues



    length     expanded size    cdr  WAVE problems  fmt   ratio  filename
     5:11.41       54956876 B   ---   --   ---xx   flac  0.5868  gd78-01-17 t01 Promised Land.flac
     5:49.49       61678892 B   ---   --   ---xx   flac  0.5566  gd78-01-17 t02 Dire Wolf.flac
     6:45.66       71597276 B   ---   --   ---xx   flac  0.5566  gd78-01-17 t03 Cassidy.flac
     9:27.26      100079996 B   ---   --   ---xx   flac  0.5458  gd78-01-17 t04 Loser.flac
     7:41.35       81402764 B   ---   --   ---xx   flac  0.5644  gd78-01-17 t05 Looks Like Rain.flac
     3:02.08       32123660 B   ---   --   ---xx   flac  0.5023  gd78-01-17 t06 Tuning.flac
    10:23.45      110003084 B   ---   --   ---xx   flac  0.5373  gd78-01-17 t07 Row Jimmy.flac
     7:16.40       77004524 B   ---   --   ---xx   flac  0.5839  gd78-01-17 t08 New Minglewood Blues.flac
     9:13.44       97652732 B   ---   --   ---xx   flac  0.5554  gd78-01-17 t09 It Must Have Been The Roses.flac
     7:56.45       84072284 B   ---   --   ---xx   flac  0.5799  gd78-01-17 t10 The Music Never Stopped.flac
     6:33.63       69473420 B   ---   --   ---xx   flac  0.5814  gd78-01-17 t11 Bertha.flac
     5:44.26       60742796 B   ---   --   ---xx   flac  0.6013  gd78-01-17 t12 Good Lovin'.flac
     2:29.11       26309516 B   ---   --   ---xx   flac  0.5274  gd78-01-17 t13 Tuning.flac
     7:01.17       74304428 B   ---   --   ---xx   flac  0.5517  gd78-01-17 t14 Candyman.flac
     2:55.67       31027628 B   ---   --   ---xx   flac  0.5111  gd78-01-17 t15 Tuning.flac
    13:19.55      141073004 B   ---   --   ---xx   flac  0.5819  gd78-01-17 t16 Estimated Prophet.flac
    22:11.64      234938972 B   ---   --   ---xx   flac  0.5843  gd78-01-17 t17 He's Gone.flac
     3:02.52       32227148 B   ---   --   ---xx   flac  0.5809  gd78-01-17 t18 Drums.flac
    14:19.67      151685228 B   ---   --   ---xx   flac  0.5815  gd78-01-17 t19 The Other One.flac
    11:53.28      125839100 B   ---   --   ---xx   flac  0.5489  gd78-01-17 t20 Black Peter.flac
     9:17.58       98391260 B   ---   --   ---xx   flac  0.6126  gd78-01-17 t21 Truckin'.flac
     9:35.30      101500604 B   ---   --   ---xx   flac  0.6216  gd78-01-17 t22 Around & Around.flac
     5:43.42       60604028 B   ---   --   ---xx   flac  0.6271  gd78-01-17 t23 US Blues.flac
   186:57.04     1978689220 B                            0.5734  (23 files)


ffp
gd78-01-17 t01 Promised Land.flac:7ebc93edb42a42bc74903e1a4bf0f3be
gd78-01-17 t02 Dire Wolf.flac:40ffcb96e74bc85aab4930091b98657b
gd78-01-17 t03 Cassidy.flac:9c10694abe48ee6215c2e9cf8a4e3cdf
gd78-01-17 t04 Loser.flac:97cd7127c32deac7d324af14f64fc605
gd78-01-17 t05 Looks Like Rain.flac:46ae86d508adc9571cc7e253bafc7f17
gd78-01-17 t06 Tuning.flac:2e9594b5b6d21261f3619d9540b240e8
gd78-01-17 t07 Row Jimmy.flac:865088270048558caa27e57acb678b14
gd78-01-17 t08 New Minglewood Blues.flac:77f91ffb90bedde98c12f2648c48b815
gd78-01-17 t09 It Must Have Been The Roses.flac:78e490b4c0af8bd817fe2dd9b99b9916
gd78-01-17 t10 The Music Never Stopped.flac:c2ec4f593c5c4b251583224543e8985e
gd78-01-17 t11 Bertha.flac:e6ce76a1f18090871fde999549a78fe2
gd78-01-17 t12 Good Lovin'.flac:55e2528fcac0ae5c354938681e1e51dd
gd78-01-17 t13 Tuning.flac:8c17f197fb3c362656487e2ee959b1f3
gd78-01-17 t14 Candyman.flac:c82a8f5abcbc1e944b7c5158ba868ec9
gd78-01-17 t15 Tuning.flac:1d218e3c822e32b3539de819ad03493d
gd78-01-17 t16 Estimated Prophet.flac:699cc707839c4f82d96b98400a2a35a7
gd78-01-17 t17 He's Gone.flac:cd3306c450b85ea4f0c0d3a16b34f0d9
gd78-01-17 t18 Drums.flac:a02a2e635340cb618ac5e1e25fac2a3f
gd78-01-17 t19 The Other One.flac:76bda4371e12c98a0cc6be84d7d2e1b2
gd78-01-17 t20 Black Peter.flac:bb5e705414c80c329341d2b7479390b5
gd78-01-17 t21 Truckin'.flac:79fbedc46b11709d39795429ed10e6d5
gd78-01-17 t22 Around & Around.flac:0c2afe899a42049d97f2e6bced1c27b4
gd78-01-17 t23 US Blues.flac:5f3b2bddd0f4045b9ba6c99025fbc496
a23188f62121c958a576386ad72f088d *gd78-01-17 t01 Promised Land.flac
3af4d7b6a81d79348a2f7bc02c4227a6 *gd78-01-17 t02 Dire Wolf.flac
1c3c5b1e7912ceb874bbc0c35e7a4002 *gd78-01-17 t03 Cassidy.flac
edddb62bf25e81119f3bbd5706993eac *gd78-01-17 t04 Loser.flac
dddc3f30ef393be32dbaf7cf70003c14 *gd78-01-17 t05 Looks Like Rain.flac
c9b24ce78e128a313dad82f8a9f4aac7 *gd78-01-17 t06 Tuning.flac
de9dc94ba7e394d7edc20c64df35adba *gd78-01-17 t07 Row Jimmy.flac
e7d65c2c93e7aa3643a1fc21d4ef2103 *gd78-01-17 t08 New Minglewood Blues.flac
b53f6eee1d670987846ea81707ad3d26 *gd78-01-17 t09 It Must Have Been The Roses.flac
56b1ccc3b74b5f7daef8271a762defb2 *gd78-01-17 t10 The Music Never Stopped.flac
37643649ccedb05cf43104ac35608ff9 *gd78-01-17 t11 Bertha.flac
9ef38963a98b478bcd7b04c792f421c8 *gd78-01-17 t12 Good Lovin'.flac
7faa60353e7cef575bf631a5e262b6f5 *gd78-01-17 t13 Tuning.flac
1fa5113d8285a9b864aff4ecec74eafa *gd78-01-17 t14 Candyman.flac
ca05690a96a548c960efcb7b6834d9c5 *gd78-01-17 t15 Tuning.flac
fbca2b5003b04e5a3cb4b9ed60a6d12c *gd78-01-17 t16 Estimated Prophet.flac
687da5f93d0e62bcc5c10afef83c8a26 *gd78-01-17 t17 He's Gone.flac
fdb81b9a5aac4634cc214f6efaa24cf4 *gd78-01-17 t18 Drums.flac
6bf549d3f45ae7196958dab5c7b97c2f *gd78-01-17 t19 The Other One.flac
f6fa58bfd5ce10185d026d356af785f5 *gd78-01-17 t20 Black Peter.flac
a2b267c0eef1b67e8cd55be03b8f9093 *gd78-01-17 t21 Truckin'.flac
9b6333c885938c66f2ffcd8d2273f9e6 *gd78-01-17 t22 Around & Around.flac
517bab078d8f6d9ec2a7ea0ad89ce6de *gd78-01-17 t23 US Blues.flac

Comments
etreedb.org
For administrative requests email contact@etreedb.org
This website written by Tom H Anderson and maintained by the etreedb.org community.

Cached: Tue, 17 Sep 2019 13:22:46 EDT