Grateful Dead 06/25/78
Autzen Stadium, University Of Oregon, Eugene, OR
Source # 145143
Entered by Matt Vernon
Checksums ffp , flac-md5
Disc Counts 0 / 0
Media Size Compressed: 1.09 GB (1174540288 bytes)
Date Circulated
Date Added
02/11/2019
02/11/2019
Source Summary
flac16/48kHz; Mark Severson's Master Audience Cassettes; Sony ECM-270 mics > Sony TC-158SD (Maxell UDXLII); Transfer Info: Master Cassettes (Nakamichi DR-1)> Tascam DA-3000 (DSF 1-bit/5.6 MHz) > dBpoweramp 24/96 > Adobe Audition CC 2019 > TLH flac2496; 24-bit > 16-bit via dBpoweramp
Grateful Dead
Autzen Stadium
University Of Oregon
Eugene, Oregon
Sunday  June 25th, 1978

This is a 16/48 fileset. 24-bit > 16-bit via dBpoweramp

Source Info:
Mark Severson's Master Audience Cassettes; Sony ECM-270 mics > Sony TC-158SD (Maxell UDXLII)

Transfer Info:
Master Cassettes (Nakamichi DR-1)> Tascam DA-3000 (DSF 1-bit/5.6 MHz) > dBpoweramp 24/96 > Adobe Audition CC 2019 > TLH flac2496

Notes:
- Thanks to Mark Severson for the master cassettes
- Thanks to Charlie Miller for the transfer and coordinating this effort
- Thanks to P. Hartman and J. Cotsman for the shnid7048 soundboard which supplies a 0:07 patch in "Eyes Of The World", as well as a0:08 patch in "Around & Around"
- "Drums" & "Space" with Ken Babbs and The Thunder Machine
- 1st audience source in general circulation (2/2019)
- Thanks to Joe B. Jones for verifying the pitch

Mastered by Scott Clugston
February 2019

Set One:
s1t01 - Crowd/Banter/Jokes/Uncle BoBo
s1t02 - Promised Land
s1t03 - They Love Each Other
s1t04 - Me & My Uncle >
s1t05 - Big River
s1t06 - Candyman
s1t07 - Technical Difficulties
s1t08 - Passenger
s1t09 - Peggy O
s1t10 - New Minglewood Blues

Set Two:
s2t01 - Crowd
s2t02 - Samson & Delilah
s2t03 - Friend Of The Devil
s2t04 - Estimated Prophet >
s2t05 - Eyes Of The World >
s2t06 - Drums >
s2t07 - Space >
s2t08 - Not Fade Away >
s2t09 - Goin' Down The Road Feeling Bad >
s2t10 - Around & Around
s2t11 - Encore Break
s2t12 - US Blues

    length     expanded size    cdr  WAVE problems  fmt   ratio  filename
    13:01.613     150069804 B   cxx   --   ---xx   flac  0.5319  gd78-06-25 s1t01 Banter-Uncle BoBo.flac
     5:19.973      61434924 B   cxx   --   ---xx   flac  0.6145  gd78-06-25 s1t02 Promised Land.flac
     7:57.040      91591724 B   cxx   --   ---xx   flac  0.5876  gd78-06-25 s1t03 They Love Each Other.flac
     2:57.960      34168364 B   cxx   --   ---xx   flac  0.6297  gd78-06-25 s1t04 Me & My Uncle.flac
     7:52.267      90675244 B   cxx   --   ---xx   flac  0.5939  gd78-06-25 s1t05 Big River.flac
     8:00.840      92321324 B   cxx   --   ---xx   flac  0.5817  gd78-06-25 s1t06 Candyman.flac
     2:14.387      25802284 B   cxx   --   ---xx   flac  0.5235  gd78-06-25 s1t07 Technical Difficulties.flac
     8:16.000      95232044 B   cxx   --   ---xx   flac  0.5788  gd78-06-25 s1t08 Passenger.flac
    10:21.533     119334444 B   cxx   --   ---xx   flac  0.5753  gd78-06-25 s1t09 Peggy O.flac
     5:49.800      67161624 B   cxx   --   ---xx   flac  0.6091  gd78-06-25 s1t10 New Minglewood Blues.flac
     1:43.720      19914284 B   cxx   --   ---xx   flac  0.5415  gd78-06-25 s2t01 Crowd.flac
     9:14.973     106554924 B   cxx   --   ---xx   flac  0.5950  gd78-06-25 s2t02 Samson & Delilah.flac
    13:42.547     157929004 B   cxx   --   ---xx   flac  0.5619  gd78-06-25 s2t03 Friend Of The Devil.flac
    13:22.947     154165804 B   cxx   --   ---xx   flac  0.6159  gd78-06-25 s2t04 Estimated Prophet.flac
    11:41.333     134656044 B   cxx   --   ---xx   flac  0.6029  gd78-06-25 s2t05 Eyes Of The World.flac
    10:49.853     124771884 B   cxx   --   ---xx   flac  0.6051  gd78-06-25 s2t06 Drums.flac
     5:39.227      65131564 B   cxx   --   ---xx   flac  0.5957  gd78-06-25 s2t07 Space.flac
     9:18.240     107182124 B   cxx   --   ---xx   flac  0.5924  gd78-06-25 s2t08 Not Fade Away.flac
     8:38.000      99456044 B   cxx   --   ---xx   flac  0.6218  gd78-06-25 s2t09 Goin' Down The Road Feeling Bad.flac
     9:05.160     104670764 B   cxx   --   ---xx   flac  0.6149  gd78-06-25 s2t10 Around & Around.flac
     1:31.573      17582124 B   cxx   --   ---xx   flac  0.5361  gd78-06-25 s2t11 Encore Break.flac
     5:52.107      67604668 B   cxx   --   ---xx   flac  0.6412  gd78-06-25 s2t12 US Blues.flac
   172:31.094    1987411012 B                            0.5910  (22 files)


ffp
gd78-06-25 s1t01 Banter-Uncle BoBo.flac:bc56107d744aecc47156346cd003f9e7
gd78-06-25 s1t02 Promised Land.flac:2f02a40d0cfd9fafb911018d0021856d
gd78-06-25 s1t03 They Love Each Other.flac:2274dbded146d13f5b093dc8dfb29289
gd78-06-25 s1t04 Me & My Uncle.flac:5f03eb1f96bc6cef342441c5cff6a237
gd78-06-25 s1t05 Big River.flac:0a4793f063ceb291091be836df0ab7c1
gd78-06-25 s1t06 Candyman.flac:ecfc218318c946a7eb45064324490c4c
gd78-06-25 s1t07 Technical Difficulties.flac:b17ce0306914a6d3a9398a55a0c73978
gd78-06-25 s1t08 Passenger.flac:0535011d67a78a17f8d1610dc4145376
gd78-06-25 s1t09 Peggy O.flac:a231a094b24168046d5058153da1d71e
gd78-06-25 s1t10 New Minglewood Blues.flac:fe03fb780b858fc8b8caced07ab9619e
gd78-06-25 s2t01 Crowd.flac:e1aa3d0678c3ce7cef751d80dbbbb3fb
gd78-06-25 s2t02 Samson & Delilah.flac:793535c2b2b4ec5fdb922c716d63418c
gd78-06-25 s2t03 Friend Of The Devil.flac:2593e5a1f4d018c9c21119bf063ceb56
gd78-06-25 s2t04 Estimated Prophet.flac:5bc7fd69d1d67eeaf05f1dfbc364aed5
gd78-06-25 s2t05 Eyes Of The World.flac:7330b96ae312c25916be442a27f55047
gd78-06-25 s2t06 Drums.flac:19765c52dc0895ccf1db158c0dd73784
gd78-06-25 s2t07 Space.flac:44dc5a92804917c83312ab8e77c9725c
gd78-06-25 s2t08 Not Fade Away.flac:3189a4fb15e8383ccbfe22669715094a
gd78-06-25 s2t09 Goin' Down The Road Feeling Bad.flac:9750086626e3b1462c977dd97141cc11
gd78-06-25 s2t10 Around & Around.flac:7b84c2c8f079f96aad5496cbc042b6af
gd78-06-25 s2t11 Encore Break.flac:d0d99075d1c361119da65349c1158d65
gd78-06-25 s2t12 US Blues.flac:9b787721467c438399c49c8d12e93bba
872713f6eaf5ac4f17097da4b1c2b0d3 *gd78-06-25 s1t01 Banter-Uncle BoBo.flac
5e40b3a2b8214fa8af74275c11454129 *gd78-06-25 s1t02 Promised Land.flac
be84c0dd0638a8c0d21a60ed8a57d88f *gd78-06-25 s1t03 They Love Each Other.flac
9711abad299aa0fc04b5a855d6d2a52f *gd78-06-25 s1t04 Me & My Uncle.flac
41a384f6ad41b3b3d35f3688e0a81a72 *gd78-06-25 s1t05 Big River.flac
d9c32361317f800a5b6a0032fc65931d *gd78-06-25 s1t06 Candyman.flac
6dee337ca241a6dbe876649f5dff45c1 *gd78-06-25 s1t07 Technical Difficulties.flac
c626c3eced781232a4e4e38a1d30b189 *gd78-06-25 s1t08 Passenger.flac
15ccfc70a557533e83c3239be28e93a5 *gd78-06-25 s1t09 Peggy O.flac
c0cf55d7ca2249ca88b6926c90344c0b *gd78-06-25 s1t10 New Minglewood Blues.flac
85c9daca134e33217e904f782d40eec1 *gd78-06-25 s2t01 Crowd.flac
48f2c5b0c389e45d8fe0f6b2528533ea *gd78-06-25 s2t02 Samson & Delilah.flac
69dc20e5095bb27e87a42036fc1792d2 *gd78-06-25 s2t03 Friend Of The Devil.flac
132466893c1b3d5eab6b15250d9396e5 *gd78-06-25 s2t04 Estimated Prophet.flac
6ed6c67c0546477b2616cf7240a1c079 *gd78-06-25 s2t05 Eyes Of The World.flac
74fc60cab527042e7d4eff73555e6d15 *gd78-06-25 s2t06 Drums.flac
61c9e9c7989b5c1b36f122283999123c *gd78-06-25 s2t07 Space.flac
fce754e222de1ce0f6eca539cfb7b946 *gd78-06-25 s2t08 Not Fade Away.flac
88643e0011e536657281386ad0594a27 *gd78-06-25 s2t09 Goin' Down The Road Feeling Bad.flac
970e200e091c404316baf3575cecaf15 *gd78-06-25 s2t10 Around & Around.flac
30a60c82ee50c555e0cfbea54fa7ad13 *gd78-06-25 s2t11 Encore Break.flac
1f4cec57563f5bd2cf8b80cabc33cb4f *gd78-06-25 s2t12 US Blues.flac

Comments
Other Sources (comments)
SBD> MC> ?> D> CD> EAC>... (0) flac16 ; Recording Info:... (1) flac24 ; Mark Severson's... (0)
Date User Comment
etreedb.org
For administrative requests email contact@etreedb.org
This website written by Tom H Anderson and maintained by the etreedb.org community.

Cached: Wed, 18 Sep 2019 12:35:37 EDT