Grateful Dead 04/15/78
William & Mary Hall, Williamsburg, VA
Source Summary
flac 16; Sick Bits Vol. 24 - SBD/AUD mix of 2 previously circulating sources: SBD (shnid=33683) + AUD (shnid=18556). Matrixed by Chris Chappell.
Grateful Dead
William & Mary Hall
Williamsburg, VA
4-15-78
Sick Bits Vol. 24

Matrix: (SBD/AUD mix)

SBD: (shnid=33683)
Master Reel -> PCM -> Dat
Transfer Info:
Dat (Tascam DA20) -> Behringer UltraMatch SRC2000 ->
CD (Tascam CDRW700) -> Samplitude Professional v7.02 -> FLAC
Transfers and Mastering By Charlie Miller

AUD: (shnid=18556)
Recorded by Bob Wagner: Sony 54Ps> Sony TC-158    
Lineage: MAC> Nak Dragon> ART DI/O> Egosys Waveterminal 2496>
Cool Edit 2000> Feurio/mkwACT by David Minches

Matrixed by Chris Chappell
scarfire@liquidicty.com
5-26-07
_________________________________

Set 1:
s1t01 - tuning
s1t02 - Mississippi Half-Step Uptown Toodeloo
s1t03 - Passenger
s1t04 - Friend Of The Devil
s1t05 - El Paso
s1t06 - Brown Eyed Women
s1t07 - Let It Grow
s1t08 - Deal

Set 2:
s2t01 - tuning
s2t02 - Bertha ->
s2t03 - Good Lovin'
s2t04 - Candyman
s2t05 - Sunrise ->
s2t06 - Playing In The Band ->
s2t07 - Drums ->
s2t08 - Not Fade Away ->
s2t09 - Morning Dew
s2t10 - Around And Around

Encore:
s2t11 - One More Saturday Night

Tracking: (2 80 min discs)
Start disc 2 with Candyman
_________________________________
General Notes:
An excellent Miller SBD made this matrix very enjoyable
to do.  The Wagner AUD is nice, and although distant at
first, it does improve and adds extra energy into an
already raging performance.  Half-Step, Bertha> Good Lovin',
and the only Dew of '78 are highlights.

Thanks to Charlie Miller for the kind SBD, and to Bob wagner
for recording the AUD and David Minches for the transfer.

Artwork by Paul Gilbert - thanks!

Enjoy!
-Chappy
_________________________________
Editing Notes:

- Pitch/Synch
The SBD needed to be pitched up between 2 and 7 cents starting at
Friend 'O through Sunrise. For the rest of the show the SBD had to be
pitched up 10 cents. The AUD on average had to be pitched down between
-2 and -5 cents until Playin', and for the remainder of the show, the
AUD was pitched up on average 3 cents. The AUD was synched to the SBD.

- Sonic Quality/Matrix ratio
No EQ was applied to either source.  Waves L2 was used to avoid square
waves, the levels rarely hitting zero. If I had to guess, the SBD/AUD
ratio would be somewhere around 3:1.

- Edits
The following are places where the SBD and AUD had splices, holes or
incomplete coverage in reference to the final matrix timeline.

SBD:
s1t01 (0:00 - 0:52) - missing (crowd)
s1t01 (9:59 - 10:33) - missing (crowd)
s1t04 (7:07 - 7:25) - missing (crowd)
s1t05 (4:30 - 4:41) - missing (crowd)
s1t06 (5:17 - 6:00) - missing (crowd)
s1t08 (7:00 - 7:18) - missing (crowd)
s2t01 (0:00 - 0:39) - missing (crowd)
s2t03 (6:47 - 7:31) - missing (crowd)
s2t04 (7:28 - 7:46) - missing (crowd)
s2t08 (6:42 - 7:01) - missing
s2t10 (8:21 - 9:48) - missing (crowd)

AUD:
s1t01 (10:38 - 11:13) - missing (crowd)
s1t03 (4:28 - 4:53) - missing (crowd)
s1t07 (14:27 - 14:44) - missing (crowd)
s2t03>4 (7:53 - 0:03) - missing first few notes
s2t04 (8:31 - 9:50) - missing (crowd)
s2t07 (2:07 + 2:10) - eliminated dropouts
s2t08 (0:26 - 0:35) - missing

Note that alot of the missing elements are just crowd segments, except
for the AUD missing the first few notes of Candyman, and both sources
missing sections of NFA, thankfully not in the same place, thus full
coverage is achieved.
_________________________________
SHNTOOL:

length     expanded size   cdr  WAVE problems filename
  1:24.43       14918780    ---   --   ---xx   gd78-04-15s1t01.flac
11:11.51      118484396    ---   --   ---xx   gd78-04-15s1t02.flac
  5:32.71       58731836    ---   --   ---xx   gd78-04-15s1t03.flac
  7:53.09       83458412    ---   --   ---xx   gd78-04-15s1t04.flac
  5:53.52       62391548    ---   --   ---xx   gd78-04-15s1t05.flac
  6:34.59       69640412    ---   --   ---xx   gd78-04-15s1t06.flac
15:38.64      165613772    ---   --   ---xx   gd78-04-15s1t07.flac
  7:18.17       77303228    ---   --   ---xx   gd78-04-15s1t08.flac
  1:06.33       11720060    ---   --   ---xx   gd78-04-15s2t01.flac
  5:50.37       61827068    ---   --   ---xx   gd78-04-15s2t02.flac
  8:15.61       87461516    ---   --   ---xx   gd78-04-15s2t03.flac
10:35.55      112143404    ---   --   ---xx   gd78-04-15s2t04.flac
  3:51.55       40877804    ---   --   ---xx   gd78-04-15s2t05.flac
14:19.11      151553516    ---   --   ---xx   gd78-04-15s2t06.flac
11:37.51      123070796    ---   --   ---xx   gd78-04-15s2t07.flac
13:44.22      145405388    ---   --   ---xx   gd78-04-15s2t08.flac
10:44.30      113672204    ---   --   ---xx   gd78-04-15s2t09.flac
10:00.12      105868268    ---   --   ---xx   gd78-04-15s2t10.flac
  5:00.54       53047052    ---   --   ---xx   gd78-04-15s2t11.flac
156:34.37     1657189460 B(totals for 19 files, 0.5877 overall compression ratio)

ffp
gd78-04-15s1t01.flac:7c579e2cd1a90313eecb9c416b82b0a9
gd78-04-15s1t02.flac:24120edbc683a30da712a300c8bae8f9
gd78-04-15s1t03.flac:809b2ee4fe01602a0681695c17118544
gd78-04-15s1t04.flac:e1885654045c4441c7734269a9e94d58
gd78-04-15s1t05.flac:9cfd1185b830aa8b505c7e6ff2c0673d
gd78-04-15s1t06.flac:556d4f7bf494acf89531e7060c1faf75
gd78-04-15s1t07.flac:55c97976f2acaef87943e8a82de9fe78
gd78-04-15s1t08.flac:ef343aa13905dc87976db33dd907e4c2
gd78-04-15s2t01.flac:086b1f4d89807217693cc3c3970ba9e3
gd78-04-15s2t02.flac:bca1345581ee4612a08101d5e58cf3c2
gd78-04-15s2t03.flac:015a33a58250dfa01cf573d7fa8e6f67
gd78-04-15s2t04.flac:5e74e85721776c97ed238a1f923dde51
gd78-04-15s2t05.flac:c2fb74ada5213a936fd3fcd79dc09d2d
gd78-04-15s2t06.flac:78075e1fea1ec37be2a1bee9e4cd02b1
gd78-04-15s2t07.flac:374f58b85daeb5b72bfb74d268d805e7
gd78-04-15s2t08.flac:b25215c3f4b7c3450c0ef4afb82f0114
gd78-04-15s2t09.flac:8638da15ac0888b2c5cbfa8cc8993901
gd78-04-15s2t10.flac:fbc02243e1084f1260390675b0e0599e
gd78-04-15s2t11.flac:620979b51cf85276f5601d3136a4ad97
d48452c06a2d7cc009a19e00eaa2d820 *gd78-04-15s2t11.flac
877b8b22491aaabd5323cba424080175 *gd78-04-15s1t01.flac
aaef5318bb59b33a6c9427a961479038 *gd78-04-15s1t02.flac
61f8086b0a3070b184d7717126add09d *gd78-04-15s1t03.flac
5a55b50ca68bee65ecec4b2e9e11cef7 *gd78-04-15s1t04.flac
1233b0d7d96d15e46c16bc314287fbbc *gd78-04-15s1t05.flac
0deea6e34de90dd2f3c890abfb9a0872 *gd78-04-15s1t06.flac
d3f8fe3d0267b2c50aec316b74546887 *gd78-04-15s1t07.flac
fb3666c0c8cb9afebc52ca59ec438d8b *gd78-04-15s1t08.flac
b2b93f8daca0cc04aba75071dc2a10aa *gd78-04-15s2t01.flac
64242ce9f7c9cb9f913afe69020ad164 *gd78-04-15s2t02.flac
8346fbcc1eb64be4d21c9f1d33b49c81 *gd78-04-15s2t03.flac
e879a933a2dc17aafeebd1e18d96630b *gd78-04-15s2t04.flac
eb4211c7c328afcd555d89ea898bf7fe *gd78-04-15s2t05.flac
37258d699c5cb059822718536cab21b5 *gd78-04-15s2t06.flac
c0353ad4a54926a5768927b28de22f1d *gd78-04-15s2t07.flac
bd5a89ac1106d49d20b3b99e213b2cd6 *gd78-04-15s2t08.flac
ab7a2095f3f21ae133e66e2352aa57f5 *gd78-04-15s2t09.flac
c3c0f74aad2be6ee9aa8e296ef6e5473 *gd78-04-15s2t10.flac

Comments
Other Sources (comments)
SBD> MR> PCM> D> CD> EAC>... (4) Recorded by Bob Wagner;... (0) flac16 ; Recording Info:... (0) flac16 ; SBD > MR > PCM >... (0) flac16 Source: (single)... (0) flac24 ; Set 2 Source:... (0) flac16 ; Set 2 Source:... (0)
Date User Comment
08/27/2012 charliemiller I had the pitch checked on the sbd and it is on pitch. Not sure why you would have had to make any adjustments to it.
etreedb.org
For administrative requests email contact@etreedb.org
This website written by Tom H Anderson and maintained by the etreedb.org community.

Cached: Sat, 19 Oct 2019 16:39:18 EDT