Grateful Dead 09/15/78
Gizah Sound and Light Theater, Cairo, Egypt
Source Summary
flac16; Recording Info: Set One: SBD -> Master Reel -> Cassette -> Dat (48k) Set Two: SBD -> Master Reel -> PCM -> Dat (44.1k) Transfer Info: Dat (Sony R500) -> Samplitude Professional v9.11 -> FLAC All Transfers and Mastering By Charlie Miller
Grateful Dead - September 15, 1978
Sphinx Theatre - Giza, Egypt

Recording Info:
Set One: SBD -> Master Reel -> Cassette -> Dat (48k)
Set Two: SBD -> Master Reel -> PCM -> Dat (44.1k)

Transfer Info:
Dat (Sony R500) -> Samplitude Professional v9.11 -> FLAC
(3 Discs Audio / 2 Discs FLAC)

All Transfers and Mastering By Charlie Miller
charliemiller87@earthlink.net
October 20, 2007

Patch Info:
(FOB/1st Row) Sony ECM280 -> Cassette Master -> CD (shnid=4160) supplies:
Drums (4:01 - 10:41)

Notes:
-- Mastered on 10 inch reels recorded at 15ips 1/2 track

Set One:
d1t01 - Introduction
d1t02 - Hamza el Din set
d1t03 - Ollin Arrageed ->
d1t04 - Promised Land
d1t05 - Friend Of The Devil
d1t06 - Mama Tried ->
d1t07 - Big River
d1t08 - Loser
d1t09 - I Need A Miracle
d1t10 - Stagger Lee

Set Two:
d2t01 - Jack Straw
d2t02 - Ship Of Fools
d2t03 - Estimated Prophet ->
d2t04 - Eyes Of The World ->
d2t05 - Drums ->
d3t01 - Space ->
d3t02 - Terrapin Station ->
d3t03 - Sugar Magnolia


SHNTOOL OUTPUT:
    length     expanded size   cdr  WAVE problems filename
     1:31.00       16052444    ---   --   -----   gd78-09-15d1t01.wav
    14:12.48      150405740    ---   --   -----   gd78-09-15d1t02.wav
    17:59.49      190450892    ---   --   -----   gd78-09-15d1t03.wav
     4:21.51       46160396    ---   --   -----   gd78-09-15d1t04.wav
     9:36.00      101606444    ---   --   -----   gd78-09-15d1t05.wav
     2:41.55       28529804    ---   --   -----   gd78-09-15d1t06.wav
     7:11.49       76143692    ---   --   -----   gd78-09-15d1t07.wav
     8:24.26       88966796    ---   --   -----   gd78-09-15d1t08.wav
     6:34.48       69614540    ---   --   -----   gd78-09-15d1t09.wav
     6:50.38       72413420    ---   --   -----   gd78-09-15d1t10.wav
     8:35.59       90984812    ---   --   -----   gd78-09-15d2t01.wav
     9:19.12       98635868    ---   --   -----   gd78-09-15d2t02.wav
    11:56.22      126354188    ---   --   -----   gd78-09-15d2t03.wav
    13:15.31      140310956    ---   --   -----   gd78-09-15d2t04.wav
    13:00.08      137610860    ---   --   -----   gd78-09-15d2t05.wav
     4:42.68       49904780    ---   --   -----   gd78-09-15d3t01.wav
    11:26.11      121036316    ---   --   -----   gd78-09-15d3t02.wav
    10:38.50      112660844    ---   --   -----   gd78-09-15d3t03.wav
   162:18.25     1717842792 B                     (totals for 18 files)
ffp
gd78-09-15d1t01.flac:7741ed832686b06ef3743e9081923697
gd78-09-15d1t02.flac:434f7bfd0adc93eadc914b235a0206b6
gd78-09-15d1t03.flac:52503c6c90f3c4f725890e63661dd224
gd78-09-15d1t04.flac:efb003eec1abffad59439cf281c968e7
gd78-09-15d1t05.flac:1d73bcf6a634be0b1b9aec98c0cebc8f
gd78-09-15d1t06.flac:16a137534dfd5ed99ddb9c322ac9c748
gd78-09-15d1t07.flac:f35001c40f0c0550eba28d8f06e7e4d0
gd78-09-15d1t08.flac:70979af74406f29d1289aee9f2ed6d1c
gd78-09-15d1t09.flac:9407b567a12d8f7dc1df212a2303168e
gd78-09-15d1t10.flac:b2471b8e36d823df4115ab111bf145a6
gd78-09-15d2t01.flac:433525a5677e281161375f40b7a3dbe5
gd78-09-15d2t02.flac:2b520193d8798d564f00f35cb26ff719
gd78-09-15d2t03.flac:61c62c14c0d841b085a56a0eacee015a
gd78-09-15d2t04.flac:414273fdcd24c377e75abff9e6c1dbe2
gd78-09-15d2t05.flac:6390464bd9d140b35af9dd41e7e60326
gd78-09-15d3t01.flac:cd755a8747ba6ec69db0fb4c303933a2
gd78-09-15d3t02.flac:9c4ff9de27f1f68d023d0d4fdcf0f406
gd78-09-15d3t03.flac:1ffa02473c495b31be46d943a9f3f430
86e922877dfeca705a4594c835414f8f *gd78-09-15d1t01.flac
8cb6fc06c0657f66778bac5f1eba1aeb *gd78-09-15d1t02.flac
3339fd4edfbe33054162936d34311484 *gd78-09-15d1t03.flac
5ff300ebc4b9d49a37dfc491ef53d2d8 *gd78-09-15d1t04.flac
8797e15727bd9f906dd0e85a0dbe1594 *gd78-09-15d1t05.flac
71f06ab1340831871f8526b38f9e0bd4 *gd78-09-15d1t06.flac
ed878c8211544700185d152aa3fd2a29 *gd78-09-15d1t07.flac
21cade76db5197c4c08ae31caa34d54b *gd78-09-15d1t08.flac
3defc5fde9778594e6c51b4e2e86c0ee *gd78-09-15d1t09.flac
03a8f4b73ced44cf4f70fae18451c509 *gd78-09-15d1t10.flac
aa904f8401412714b4692106b517169e *gd78-09-15d2t01.flac
cf3718b35bc324046a663d39de8de3e4 *gd78-09-15d2t02.flac
73d6ecea1e7bea4602337ab322142c2e *gd78-09-15d2t03.flac
886ed0ac691fc77f8d5c593fe42010ec *gd78-09-15d2t04.flac
3b87e0b68efa4fb797dda1aded9ca182 *gd78-09-15d2t05.flac
5c1bdc1efc96d724e98c04698749edf2 *gd78-09-15d3t01.flac
837acaaaa3ae62e6272c8795890f145f *gd78-09-15d3t02.flac
b5afacbec921f0ba2433673c74e1b83a *gd78-09-15d3t03.flac

Comments
Other Sources (comments)
set 2; Source: Probably the... (0) Aud FOB, front row LFC,... (0) set 2; SBD > 10" RTR @ 15... (2) Recording Info: Set One:... (0) flac16 ; Matrix 2 Source... (0) DTS Audio 5.1 ; SBD (shn... (0) flac16 ; Source: Audience... (0) flac16 ; 2 x Sony ecm 280... (0)
Date User Comment
10/30/2007 charlie miller Set 2 is seamless
04/14/2009 Ifthir Are the vocals gone from parts of Jack Straw during set 2?
etreedb.org
For administrative requests email contact@etreedb.org
This website written by Tom H Anderson and maintained by the etreedb.org community.

Cached: Wed, 16 Oct 2019 17:33:10 EDT