Grateful Dead 12/28/78
Golden Hall, Community Concourse, San Diego, CA
Source Summary
flac16/44.1kHz & 48kHz; Source Info: 1st Set: Master Soundboard Cassettes > Cassette > Dat (16-bit/44.1k); 2nd Set: Master Soundboard Cassettes > Dat (16-bit/48k); Transfer Info: 1st Set: Dat (Sony PCM-R500) > Apogee aes/ebu cable > Tascam DA-3000 (.wav 16-bit/44.1k)> Adobe Audition 3.01 > TLH flac16; 2nd Set: Dat (Sony PCM-R500) > Apogee aes/ebu cable > Tascam DA-3000 (.wav 16-bit/48k)> Adobe Audition 3.01 > TLH flac1648
Grateful Dead
Golden Hall
Community Concourse
San Diego, CA
Thursday December 28th, 1978

Source Info:
1st Set: Master Soundboard Cassettes > Cassette > Dat (16-bit/44.1k)
2nd Set: Master Soundboard Cassettes > Dat (16-bit/48k)

Transfer Info:
1st Set: Dat (Sony PCM-R500) > Apogee aes/ebu cable > Tascam DA-3000 (.wav 16-bit/44.1k)> Adobe Audition 3.01 > TLH flac16
2nd Set: Dat (Sony PCM-R500) > Apogee aes/ebu cable > Tascam DA-3000 (.wav 16-bit/48k)> Adobe Audition 3.01 > TLH flac1648

Notes:
- Thanks to Rob Eaton for the source Dats
- Thanks to Charlie Miller for the transfer and coordinating this effort
- Thanks to Greg Schug, Steven Martin and Jack Warner for the Neumann SM69 source which supplies the crowd before "Sugaree" (0:06 total), the crowd before "Me & My Uncle" (0:08 total), a 0:01.87 patch in "Candyman" to repair what sounds like tape stretch (also present on shnid7487), the set break announcement (0:09 total), as well as a 1:07 patch in "Drums"
- Thanks to Joe B. Jones for verifying the pitch of both sources

Mastered by Scott Clugston
July 2018

Set One:
s1t01 - Sugaree
s1t02 - Electronic Weasels / Funiculi Funicula
s1t03 - Beat It On Down The Line
s1t04 - Dire Wolf
s1t05 - Looks Like Rain
s1t06 - Stagger Lee
s1t07 - Me & My Uncle >
s1t08 - Big River
s1t09 - Candyman
s1t10 - New Minglewood Blues
s1t11 - Tennessee Jed
s1t12 - Lazy Lightning >
s1t13 - Supplication

Set Two:
s2t01 - Shakedown Street
s2t02 - From The Heart Of Me
s2t03 - Estimated Prophet >
s2t04 - Eyes Of The World >
s2t05 - Drums >
s2t06 - Space >
s2t07 - Truckin' >
s2t09 - Wharf Rat >
s2t09 - Sugar Magnolia
Encore
s2t10 - Johnny B. Goode


    length     expanded size    cdr  WAVE problems  fmt   ratio  filename
    15:23.41      162913676 B   ---   --   ---xx   flac  0.6099  gd78-12-28 s1t01 Sugaree.flac
     2:18.21       24392636 B   ---   --   ---xx   flac  0.4926  gd78-12-28 s1t02 Funiculi Funicula.flac
     4:49.23       51033740 B   ---   --   ---xx   flac  0.5798  gd78-12-28 s1t03 Beat It On Down The Line.flac
     6:11.49       65559692 B   ---   --   ---xx   flac  0.5673  gd78-12-28 s1t04 Dire Wolf.flac
     9:49.57      104033708 B   ---   --   ---xx   flac  0.5547  gd78-12-28 s1t05 Looks Like Rain.flac
     6:35.37       69765068 B   ---   --   ---xx   flac  0.5974  gd78-12-28 s1t06 Stagger Lee.flac
     3:00.39       31843772 B   ---   --   ---xx   flac  0.6164  gd78-12-28 s1t07 Me & My Uncle.flac
     7:49.71       82898636 B   ---   --   ---xx   flac  0.5910  gd78-12-28 s1t08 Big River.flac
     9:13.45       97655084 B   ---   --   ---xx   flac  0.5710  gd78-12-28 s1t09 Candyman.flac
     6:18.73       66850940 B   ---   --   ---xx   flac  0.6010  gd78-12-28 s1t10 New Minglewood Blues.flac
     9:42.17      102704828 B   ---   --   ---xx   flac  0.6110  gd78-12-28 s1t11 Tennessee Jed.flac
     3:36.34       38182412 B   ---   --   ---xx   flac  0.6371  gd78-12-28 s1t12 Lazy Lightning.flac
     5:28.73       58030580 B   -b-   --   ---xx   flac  0.6356  gd78-12-28 s1t13 Supplication.flac
    14:17.867     164710444 B   cxx   --   ---xx   flac  0.5653  gd78-12-28 s2t01 Shakedown Street.flac
     6:24.560      73835564 B   cxx   --   ---xx   flac  0.5136  gd78-12-28 s2t02 From The Heart Of Me.flac
    11:41.187     134627884 B   cxx   --   ---xx   flac  0.6018  gd78-12-28 s2t03 Estimated Prophet.flac
     9:30.000     109440044 B   cxx   --   ---xx   flac  0.5986  gd78-12-28 s2t04 Eyes Of The World.flac
     9:27.733     109004844 B   cxx   --   ---xx   flac  0.5398  gd78-12-28 s2t05 Drums.flac
     2:43.600      31411244 B   cxx   --   ---xx   flac  0.5295  gd78-12-28 s2t06 Space.flac
     8:34.853      98851884 B   cxx   --   ---xx   flac  0.6250  gd78-12-28 s2t07 Truckin'.flac
    10:15.653     118205484 B   cxx   --   ---xx   flac  0.5586  gd78-12-28 s2t08 Wharf Rat.flac
     9:23.920     108272684 B   cxx   --   ---xx   flac  0.5983  gd78-12-28 s2t09 Sugar Magnolia.flac
     4:19.769      49875628 B   cxx   --   ---xx   flac  0.6108  gd78-12-28 s2t10 Johnny B. Goode.flac
   176:57.873    1954100476 B                            0.5845  (23 files)


ffp
gd78-12-28 s1t01 Sugaree.flac:04759838cb5bf8088df8c0a7d6696d2e
gd78-12-28 s1t02 Funiculi Funicula.flac:ef0ebf7c2b8052254ba3416bfb5d4587
gd78-12-28 s1t03 Beat It On Down The Line.flac:9c5392901a99e24e45de4539245c0d8f
gd78-12-28 s1t04 Dire Wolf.flac:f2a67cc7811c2bbf738fee393078db56
gd78-12-28 s1t05 Looks Like Rain.flac:24585d4451e34038f8be3d4f9e3feaf5
gd78-12-28 s1t06 Stagger Lee.flac:eef7fbbcabe6d47097906bdb51fb3b27
gd78-12-28 s1t07 Me & My Uncle.flac:fe7c236a5504c3369293dcd7b766901f
gd78-12-28 s1t08 Big River.flac:9bfd3724ea79bb40dc25612cd80c1355
gd78-12-28 s1t09 Candyman.flac:8d6d65cd87ee3dade73c7b4673f0acb7
gd78-12-28 s1t10 New Minglewood Blues.flac:c6f5a886b278083063917b96675c4589
gd78-12-28 s1t11 Tennessee Jed.flac:ecff4d723f8c170cf58005288812cf6b
gd78-12-28 s1t12 Lazy Lightning.flac:458cc4a284e1c3245cc342036f30fc17
gd78-12-28 s1t13 Supplication.flac:7fb06bf96218f4d8ea27a1e37f616394
gd78-12-28 s2t01 Shakedown Street.flac:ceddc1e717646e30067607477fa9dc6e
gd78-12-28 s2t02 From The Heart Of Me.flac:4966545e72ffae71e1cec35a274d5d17
gd78-12-28 s2t03 Estimated Prophet.flac:524ee80673393027e487940a7834d1f2
gd78-12-28 s2t04 Eyes Of The World.flac:8ad2ebdcddcf086a73e3cf1902c7c94b
gd78-12-28 s2t05 Drums.flac:2583becf6740388ac954a9f761a2d9df
gd78-12-28 s2t06 Space.flac:dd5f32cf683dc15eab2fcfad801f216f
gd78-12-28 s2t07 Truckin'.flac:fbdd89879f95caa69fefd47de2b1ee82
gd78-12-28 s2t08 Wharf Rat.flac:eb053b71e2ee7dc9632929b660dd5ba5
gd78-12-28 s2t09 Sugar Magnolia.flac:7125b0f11fa314d8cebe9e68ae1cc16a
gd78-12-28 s2t10 Johnny B. Goode.flac:151b05f51d2ae1ba7c0191c8289aea02
0d21df753bc072378127613d730b29b5 *gd78-12-28 s1t01 Sugaree.flac
4a34cb2af6be75225735365d3aa83073 *gd78-12-28 s1t02 Funiculi Funicula.flac
706247522f515a770640078aa28c53c9 *gd78-12-28 s1t03 Beat It On Down The Line.flac
c2c329b399e532843f20cdcab5352c7b *gd78-12-28 s1t04 Dire Wolf.flac
8c6ef6fd9b6d24062d79f255014f5c7b *gd78-12-28 s1t05 Looks Like Rain.flac
8d639ed7ada0be2dc916cf419e2a7a1f *gd78-12-28 s1t06 Stagger Lee.flac
db5917ef39672ea841cbd0a5993558cf *gd78-12-28 s1t07 Me & My Uncle.flac
3d361fbb73d8a7fb23fbff921d9171bb *gd78-12-28 s1t08 Big River.flac
33a1c297ee8158cb415c29eae737922b *gd78-12-28 s1t09 Candyman.flac
9bf2dfc6cace9c128da4742c463c70bc *gd78-12-28 s1t10 New Minglewood Blues.flac
2f406f320ea0b64a5ae5a1cb9e37019f *gd78-12-28 s1t11 Tennessee Jed.flac
09c2048cac4506a41a24a61265c720dc *gd78-12-28 s1t12 Lazy Lightning.flac
97ae867eb8f5daaf23f02450e5bcea5a *gd78-12-28 s1t13 Supplication.flac
6df8be03b99b967e33cc53ff6d8f6e54 *gd78-12-28 s2t01 Shakedown Street.flac
2bff90fc614ab253f06820549e80354e *gd78-12-28 s2t02 From The Heart Of Me.flac
7147b97ab9d77b4b1ed359327cf9c1f9 *gd78-12-28 s2t03 Estimated Prophet.flac
d72c57d9898d0931b6de1dc7bffdc750 *gd78-12-28 s2t04 Eyes Of The World.flac
7c9f7c2543e377cf24e9a3fe2c9b295c *gd78-12-28 s2t05 Drums.flac
fac006410da97c9679829bf7422753dd *gd78-12-28 s2t06 Space.flac
56b6ad2c0a96861f2ff8bc051eca9a74 *gd78-12-28 s2t07 Truckin'.flac
4111a2a77c95400b308c10589226a85e *gd78-12-28 s2t08 Wharf Rat.flac
4ca874211e175bbe766d06d1e98e1476 *gd78-12-28 s2t09 Sugar Magnolia.flac
34e18db7d62cc0eb73a8dad3eda297a4 *gd78-12-28 s2t10 Johnny B. Goode.flac

Comments
etreedb.org
For administrative requests email contact@etreedb.org
This website written by Tom H Anderson and maintained by the etreedb.org community.

Cached: Sat, 24 Oct 2020 01:45:36 EDT