Garcia 12/09/77
Gym, S.U.N.Y., Stony Brook, NY
Source Summary
JGB; flac 1644; (fix of shnid-137721) Phil Matera's Mc-> Reel 1st gen Reel (Maxell-UD135) 1/4trk@3-3/4 Teac X2000R-> Korg MR1000 DSD DFF@ 5.6MHz->AudioGate-> 24/88.2 Wave-> Wavelab6-> OzoneRx4a-> Ozone6A > CD Wave > r8brainpro > 16/44.1 > TLH > Flac16
Jerry Garcia Band (This is a fix of shnid-137721. The last 2 tracks of the second set have changed.)
Gymnasium, State University of New York
Stony Brook, NY
12-09-1977

Phil Matera's Mc-> Reel

1st gen Reel (Maxell-UD135) 1/4trk@3-3/4
Teac X2000R-> Korg MR1000 DSD DFF@ 5.6MHz->

AudioGate-> 24/88.2 Wave-> Wavelab6-> OzoneRx4a-> Ozone6A
CD Wave > r8brainpro > 16/44.1 > TLH > Flac16

**patches from shn#77713 > Midnight Moonlight,Simple Twist Of Fate and Lonesome

Taper: Phil Matera  Transfer: John Hance

Set One:

1 The Harder They Come
2 Catfish John
3 That's What Love Will Make You Do
4 They Love Each Other
5 Knockin' On Heaven's Door
6 The Way You Do The Things You Do

Set Two:

1 Midnight Moonlight**
2 Gomorrah
3 Tore Up Over You
4 Simple Twist Of Fate**
5 Rubin And Cherise
6 The Night They Drove Old Dixie Down
7 Lonesome And A Long Way From Home**


Thank you Phil & JJ!
Salah
Febuary 7, 2017


    length     expanded size    cdr  WAVE problems  fmt   ratio  filename
    12:24.29      131309852 B   ---   --   ---xx   flac  0.4243  jgb77-12-09s1t01.flac
    11:09.68      118171580 B   ---   --   ---xx   flac  0.4117  jgb77-12-09s1t02.flac
    11:24.29      120725852 B   ---   --   ---xx   flac  0.4392  jgb77-12-09s1t03.flac
     7:24.26       78382796 B   ---   --   ---xx   flac  0.4286  jgb77-12-09s1t04.flac
    14:29.33      153369260 B   ---   --   ---xx   flac  0.4369  jgb77-12-09s1t05.flac
    11:55.07      126142508 B   ---   --   ---xx   flac  0.4545  jgb77-12-09s1t06.flac
    15:05.41      159738476 B   ---   --   ---xx   flac  0.4230  jgb77-12-09s2t01.flac
     8:27.10       89458364 B   ---   --   ---xx   flac  0.4627  jgb77-12-09s2t02.flac
     9:25.74       99840092 B   ---   --   ---xx   flac  0.5028  jgb77-12-09s2t03.flac
    15:36.48      165223340 B   ---   --   ---xx   flac  0.3660  jgb77-12-09s2t04.flac
    10:08.12      107279468 B   ---   --   ---xx   flac  0.4990  jgb77-12-09s2t05.flac
     9:24.69       99651932 B   ---   --   ---xx   flac  0.4732  jgb77-12-09s2t06.flac
    27:35.13      291972620 B   ---   --   ---xx   flac  0.4627  jgb77-12-09s2t07.flac
   164:31.09     1741266140 B                            0.4426  (13 files)



ffp
jgb77-12-09s1t01.flac:1a769ed6d863b6c6a172a19bffbb8bd8
jgb77-12-09s1t02.flac:a808eeda38635bdda12e1255e25c0ea4
jgb77-12-09s1t03.flac:11c0b21edc66e846bce3cec6fe972ae6
jgb77-12-09s1t04.flac:85771a703f875470b1b7a6e1c334eeec
jgb77-12-09s1t05.flac:f7d76879dc35791349142869a2ce4f40
jgb77-12-09s1t06.flac:7cbd9de045c4bbfba5957eaf8f8d3625
jgb77-12-09s2t01.flac:8e36c1a67873f3b7f36d5c57a128d459
jgb77-12-09s2t02.flac:f24985407b59e02d15b9a7439c8bc028
jgb77-12-09s2t03.flac:9491e483b9e37cb8d1012eb3c874c0e3
jgb77-12-09s2t04.flac:3f3e3965efdb0b87fbfa3e3ac1655aa1
jgb77-12-09s2t05.flac:1660931d6e3d9473f540937e9a54980b
jgb77-12-09s2t06.flac:4b905f0c9c0b7eb6db62f4a82581a72c
jgb77-12-09s2t07.flac:f7da006ea51575a52281af6b44b5baa7

md5
0d23f4f2c633a25a3c2ae2736c95c457 *jgb77-12-09s1t01.flac
fe458b2dfe31bd3463ba4f3335c7d848 *jgb77-12-09s1t02.flac
98faecfc497d9c577bb792c8e4b380f5 *jgb77-12-09s1t03.flac
86f1da5244e17bf9bc5154fef2aca62c *jgb77-12-09s1t04.flac
7ad9947f26b2d50fad3066c6d3e01a00 *jgb77-12-09s1t05.flac
b3a903e8d4962db70555fb914d031ba9 *jgb77-12-09s1t06.flac
c29100ed3836ab96702c737424f66f25 *jgb77-12-09s2t01.flac
7e270671ceb149763ac97d7ae7bb4e8d *jgb77-12-09s2t02.flac
b2858d3d3124d06608b1e8a4f0f0319e *jgb77-12-09s2t03.flac
123079043ec3498a87dff23729950964 *jgb77-12-09s2t04.flac
3f218e11055c241d1efee3feec217d17 *jgb77-12-09s2t05.flac
b9fa457a942d2ec4bb25cdd1afe0e1a2 *jgb77-12-09s2t06.flac
ac7aa8a1d18a037af79c3599d1ddadd4 *jgb77-12-09s2t07.flac

Comments
etreedb.org
For administrative requests email contact@etreedb.org
This website written by Tom H Anderson and maintained by the etreedb.org community.

Cached: Thu, 28 Oct 2021 11:33:12 EDT