Grateful Dead 09/02/78
Giants Stadium, East Rutherford, NJ
Source Summary
flac24; Set 2 Source: (FOB) Sony 54P > Sony TC-158SD > Cassette Master; taped by Bob Wagner; Transfer: Cassette Master > Nakamichi CR-7A > Tascam DA-3000 >DSF 1-bit/5.8 MHz; Conversion by Charlie Miller : DSF > KORG AudioGate 4 > wav 24/96; Lineage: wav 24/96 > Adobe Audition 3.0 > iZotope RX 6 Advanced > iZotope Ozone 5 Advanced > CD Wave > TLH > Flac 24; edited and mastered SIRMick September 2017
Grateful Dead
Giants Stadium
East Rutherford, NJ
09/02/1978



Source: (FOB) Sony 54P > Sony TC-158SD > Cassette Master
               taped by Bob Wagner
Transfer: Cassette Master > Nakamichi CR-7A > Tascam DA-3000 >DSF 1-bit/5.8 MHz
                Conversion by Charlie Miller : DSF > KORG AudioGate 4 > wav 24/96
Lineage: wav 24/96 > Adobe Audition 3.0 > iZotope RX 6 Advanced > iZotope Ozone 5 Advanced > CD Wave > TLH > Flac 24


Set II

01   crowd/tuning
02   Good Lovin'
03   crowd/tuning
04   Scarlet Begonias >
05   Fire On The Mountain
06   crowd/tuning
07   Estimated Prophet >
08   Eyes Of The World  >
09   Drums >
10   Space >
11   Sugar Magnolia
12   ~~encore break~~

encore

13   One More Saturday Night



Notes:

- Bob only taped Set II due to a very late arrival.
- DC Offset removed.
- All tracks have been pitch corrected.
- Tape flips crossfaded except for "Drums" which has been patched with two Sony EMC-33P mics > Sony
  TC-152 deck, 50-60 feet left center from the stage.  Recorded by Steve Rolfe
- A number of artifacts have been removed.
- Loud claps close to the mics have been attentuated.
- Some level adjustments made.


Thanks to Bob Wagner for taping and Charlie Miller for the transfer


edited and mastered
SIRMick
September 2017


shntool output:

    length     expanded size    cdr  WAVE problems  fmt   ratio  filename
     1:22.320      47416364 B   cxx   --   ---xx   flac  0.6037  gd1978-09-02s2t01.flac
     7:16.720     251550764 B   cxx   --   ---xx   flac  0.6380  gd1978-09-02s2t02.flac
     2:47.053      96222764 B   cxx   --   ---xx   flac  0.6295  gd1978-09-02s2t03.flac
    14:16.040     493079084 B   cxx   --   ---xx   flac  0.6412  gd1978-09-02s2t04.flac
    13:49.080     477550124 B   cxx   --   ---xx   flac  0.6346  gd1978-09-02s2t05.flac
     3:16.280     113057324 B   cxx   --   ---xx   flac  0.6040  gd1978-09-02s2t06.flac
    14:47.107     510973484 B   cxx   --   ---xx   flac  0.6392  gd1978-09-02s2t07.flac
    15:48.400     546278444 B   cxx   --   ---xx   flac  0.6417  gd1978-09-02s2t08.flac
     6:52.253     237457964 B   cxx   --   ---xx   flac  0.6393  gd1978-09-02s2t09.flac
     1:28.693      51087404 B   cxx   --   ---xx   flac  0.6304  gd1978-09-02s2t10.flac
    10:22.160     358364204 B   cxx   --   ---xx   flac  0.6589  gd1978-09-02s2t11.flac
     2:43.827      94364204 B   cxx   --   ---xx   flac  0.6269  gd1978-09-02s2t12.flac
     5:13.587     180625964 B   cxx   --   ---xx   flac  0.6518  gd1978-09-02s2t13.flac
   100:03.520    3458028092 B                            0.6395  (13 files)



ffp
gd1978-09-02s2t01.flac:6306a88152a131bea726867d5ab3fc47
gd1978-09-02s2t02.flac:f5654a24e2a1f0c41643897be00eeb82
gd1978-09-02s2t03.flac:134dd54b50ec6c0af41b739b4e6db985
gd1978-09-02s2t04.flac:984304007209787e0132a8b5e19b7380
gd1978-09-02s2t05.flac:c20b1364f3e2142b78312257dc742885
gd1978-09-02s2t06.flac:920a6550d263c0c92733c5b0cb269644
gd1978-09-02s2t07.flac:83913d2803314024646d29886c3d3543
gd1978-09-02s2t08.flac:a93675c7c151a866c68e933ef0b79134
gd1978-09-02s2t09.flac:65f02d186465c2fc471667432224616a
gd1978-09-02s2t10.flac:c534034720487c8e1e1df8269d4a0560
gd1978-09-02s2t11.flac:11151ba54ee33672598488fb749c9a33
gd1978-09-02s2t12.flac:784390f5f2dcd4880b266706426984b1
gd1978-09-02s2t13.flac:03810008dc09d42df10fc1c2a5c40417
75ed3e0ac2b0c1ed78257f63821f78fe *gd1978-09-02s2t01.flac
28179fc17a48d4718f5bc54cd49d6c52 *gd1978-09-02s2t02.flac
02df66958d2f57888d3614f0246491c3 *gd1978-09-02s2t03.flac
7a30d66083928c54e43f3ffa962cfc53 *gd1978-09-02s2t04.flac
56b239f4e00c613c7f8d70f70672cd20 *gd1978-09-02s2t05.flac
742439d31c71b12d7f08907a79e6a3f9 *gd1978-09-02s2t06.flac
922a6bc1f57f585fb2eab1aeff68aef3 *gd1978-09-02s2t07.flac
363330ad1f99c0933011c478169861ae *gd1978-09-02s2t08.flac
9ad97e7f7da59dc9aed088b95982b484 *gd1978-09-02s2t09.flac
d6842e851e01719c02331c7267c4149e *gd1978-09-02s2t10.flac
99e168f8b7e26d37e6655a7479afa00a *gd1978-09-02s2t11.flac
c6d64d47506e0cb71cd8adc1a412d553 *gd1978-09-02s2t12.flac
2127c7adf5c3323c6a2e3ef835d9ee9a *gd1978-09-02s2t13.flac

Comments
etreedb.org
For administrative requests email contact@etreedb.org
This website written by Tom H Anderson and maintained by the etreedb.org community.

Cached: Tue, 17 Sep 2019 09:21:17 EDT