Grateful Dead 09/16/78
Gizah Sound and Light Theater, Cairo, Egypt
Source Summary
flac16; Recording Info: SBD -> Master Reel -> PCM -> Dat (48k) Transfer Info: Dat (Sony R500) -> Samplitude Professional v9.11 -> FLAC All Transfers and Mastering By Charlie Miller
Grateful Dead - September 16, 1978
Sphinx Theatre - Giza, Egypt

Recording Info:
SBD -> Master Reel -> PCM -> Dat (48k)

Transfer Info:
Dat (Sony R500) -> Samplitude Professional v9.11 -> FLAC
(3 Discs Audio / 2 Discs FLAC)

All Transfers and Mastering By Charlie Miller
charliemiller87@earthlink.net
November 7, 2007

Patch Info:
Unknown Mics -> Cassette Master -> ? -> Cassette -> Samplitude supplies:
Row Jimmy (0:00 - 3:32)
Ramble On Rose (0:00 - 0:09)
Fire On The Mountain (9:46 - 10:44)
Sunrise (complete song)

Notes:
-- Set 2 is seamless
-- Ollin Arrageed with Hamza el Din
-- Thanks to chopper7 for the patch source
-- Portion missing from front end of FOTM patch

Set One:
d1t01 - Bertha ->
d1t02 - Good Lovin'
d1t03 - Candyman
d1t04 - Looks Like Rain
d1t05 - Row Jimmy
d1t06 - El Paso
d1t07 - Ramble On Rose
d1t08 - New Minglewood Blues
d1t09 - Deal

Set 2:
d2t01 - Hamza el Din Set
d2t02 - Ollin Arrageed ->
d2t03 - Fire On The Mountain ->
d2t04 - Iko Iko
d2t05 - I Need A Miracle ->
d2t06 - It's All Over Now
d2t07 - Sunrise
d3t01 - Shakedown Street ->
d3t02 - Drums ->
d3t03 - Space ->
d3t04 - Truckin' ->
d3t05 - Stella Blue ->
d3t06 - Around And Around

Encore:
d3t07 - One More Saturday Night


SHNTOOL OUTPUT:
    length     expanded size   cdr  WAVE problems filename
     7:30.03       79387100    ---   --   -----   gd78-09-16d1t01.wav
     7:48.16       82592876    ---   --   -----   gd78-09-16d1t02.wav
     9:32.25      100959644    ---   --   -----   gd78-09-16d1t03.wav
     8:43.06       92271356    ---   --   -----   gd78-09-16d1t04.wav
    13:19.51      141063596    ---   --   -----   gd78-09-16d1t05.wav
     4:42.72       49914188    ---   --   -----   gd78-09-16d1t06.wav
     8:58.10       94926764    ---   --   -----   gd78-09-16d1t07.wav
     6:40.68       70719980    ---   --   -----   gd78-09-16d1t08.wav
     7:00.72       74257388    ---   --   -----   gd78-09-16d1t09.wav
    21:05.41      223242476    ---   --   -----   gd78-09-16d2t01.wav
    16:52.08      178535660    ---   --   -----   gd78-09-16d2t02.wav
    13:48.18      146101580    ---   --   -----   gd78-09-16d2t03.wav
    10:24.15      110108924    ---   --   -----   gd78-09-16d2t04.wav
     5:43.54       60632252    ---   --   -----   gd78-09-16d2t05.wav
     7:12.64       76355372    ---   --   -----   gd78-09-16d2t06.wav
     4:09.08       43942460    ---   --   -----   gd78-09-16d2t07.wav
    15:47.45      167156684    ---   --   -----   gd78-09-16d3t01.wav
    10:44.70      113766284    ---   --   -----   gd78-09-16d3t02.wav
     6:28.05       68455004    ---   --   -----   gd78-09-16d3t03.wav
    10:10.51      107723996    ---   --   -----   gd78-09-16d3t04.wav
     8:22.21       88602236    ---   --   -----   gd78-09-16d3t05.wav
    10:31.56      111440156    ---   --   -----   gd78-09-16d3t06.wav
     5:28.30       57929804    ---   --   -----   gd78-09-16d3t07.wav
   221:05.59     2340085780 B                     (totals for 23 files)
ffp
gd78-09-16d1t01.flac:49f61a3f97baa1e653c701578d9688d1
gd78-09-16d1t02.flac:4e89a90608d159b1e8a5567053a84354
gd78-09-16d1t03.flac:523657dab5a792da9e156cfa281d7a38
gd78-09-16d1t04.flac:71c52dfd501ed83692211be9eb19a167
gd78-09-16d1t05.flac:5c14f50993b65b6e190f2337e13428ae
gd78-09-16d1t06.flac:01b5cac75f3258d35b94092c89c75cc8
gd78-09-16d1t07.flac:8369f23152ef6edd5b4dabcd84eba79f
gd78-09-16d1t08.flac:6b771dffd4d11e0ae12c945348868540
gd78-09-16d1t09.flac:89172789f22c26e0e202f1b23259bb36
gd78-09-16d2t01.flac:aefb0b3f196047851cba690b0236bbdc
gd78-09-16d2t02.flac:f0bba726709e146208d56842bb35d091
gd78-09-16d2t03.flac:ae3ea99c5c9c018dbf0719920be20901
gd78-09-16d2t04.flac:93cd8c3b1f42a580fc807f7a5ad1631a
gd78-09-16d2t05.flac:a5108e43f014fdf3bfe8a4f0bee107e2
gd78-09-16d2t06.flac:8ea13c71c2dd1b0357dae206082e3e5f
gd78-09-16d2t07.flac:29c3abba6afcc316339c60ac9b4be18a
gd78-09-16d3t01.flac:0b528071dd596a94e9e70d2d75410950
gd78-09-16d3t02.flac:dad2d4634e7d88970722b4f4f9bc832a
gd78-09-16d3t03.flac:b36c8f5047137a1b83e2184d7b5da210
gd78-09-16d3t04.flac:afacfffd9244c807b6c1038d34ce0b80
gd78-09-16d3t05.flac:860c2310c827eb89f8e27d88ad9d432a
gd78-09-16d3t06.flac:c363a2ad1863d2c54268e6c88caa83a2
gd78-09-16d3t07.flac:76b24eba7397b1cca76ebc38d9ef035b
46ed4e17f32e87d6de107d7342d87a20 *gd78-09-16d1t01.flac
5abfade5e2865de4657451be1e1cefc8 *gd78-09-16d1t02.flac
78028484c806c041868c53e40f965939 *gd78-09-16d1t03.flac
cb78a32b556d14451161cf22cbb0986b *gd78-09-16d1t04.flac
e0be4b00744caf0c17b2ca01ad0f203c *gd78-09-16d1t05.flac
290af3df4fec569ac741037db499cc63 *gd78-09-16d1t06.flac
15d79bd949dcb5542ccc4956810137e2 *gd78-09-16d1t07.flac
fc423d40fcbcd4cb8ba28fec4bbb26fa *gd78-09-16d1t08.flac
ef4b946ad000b8f5833aedfc6d273ea7 *gd78-09-16d1t09.flac
77ea39ba221c60e4aa96b43c73d3754a *gd78-09-16d2t01.flac
40c8a94afe61034bca85585b443920d7 *gd78-09-16d2t02.flac
5335272c05838f302e5d9ae6dfaf6837 *gd78-09-16d2t03.flac
4ade78b73deec16fc6f79df06f0c18f9 *gd78-09-16d2t04.flac
24dbb95cf88b808296865e31692a97ab *gd78-09-16d2t05.flac
32ab8dfcc99c340fc8eb276954738e10 *gd78-09-16d2t06.flac
1963e84ac7495da8c4eb3b19d16dc16f *gd78-09-16d2t07.flac
fab42fa7af46ecff0826c9b318cf1f8a *gd78-09-16d3t01.flac
60cd131202442c1c69e81577a9dd0887 *gd78-09-16d3t02.flac
207fb6c8319d82160fc3bf5ddb451a30 *gd78-09-16d3t03.flac
08dad8ca271afcb2eeb755b1a423c419 *gd78-09-16d3t04.flac
2e4b4e1684b5c8f1e52c421ca6bfe99d *gd78-09-16d3t05.flac
3d95c985d889aa0add4ff57dea72944b *gd78-09-16d3t06.flac
cbdc9e74c12a10e3bd0dc7b58eecf31f *gd78-09-16d3t07.flac

Comments
etreedb.org
For administrative requests email contact@etreedb.org
This website written by Tom H Anderson and maintained by the etreedb.org community.

Cached: Wed, 16 Oct 2019 19:11:01 EDT