Grateful Dead 10/22/78
Winterland Arena, San Francisco, CA
Source Summary
flac16;Recording Info:SBD -> Cassette Master (Maxell UDXL-I) -> PCM (Analog Out) -> Sony R500 (A>D Only) -> Peak -> AIFF; Transfer Info:AIFF -> Samplitude Professional v10.1 -> FLAC; All Transfers and Mastering By Charlie Miller
Grateful Dead - October 22, 1978
Winterland Arena - San Francisco, CA

Recording Info:
SBD -> Cassette Master (Maxell UDXL-I) -> PCM (Analog Out) ->
Sony R500 (A>D Only) -> Peak -> AIFF

Transfer Info:
AIFF -> Samplitude Professional v10.1 -> FLAC
(3 Discs Audio / 2 Discs FLAC)

All Transfers and Mastering By Charlie Miller
charliemiller87@earthlink.net
July 3, 2008

Patch Info:
AKG D224E -> Cassette Master -> Reel -> Reel -> MiniMe -> CD supplies:
Goin' Down The Road Feeling Bad (3:28 - 4:08)

Notes:
-- All disc changes are seamless
-- Not Fade Away contains a Mind Left Body Jam, Caution Jam and Mojo Jam
-- Hamza el-Din on Ollin Arrageed
-- Lee Oskar (harmonica) on Drums
-- John Cipollina (guitar) on Not Fade Away and GDTRFB
-- Patch material supplied by Pat Lee and transferred by Matt Smith
-- Patch was recorded by Reinhart Holwein on a Sony TC-158 cassette deck

Set 1:
d1t01 - Introduction
d1t02 - Hamza el-Din
d1t03 - Ollin Arrageed ->
d1t04 - Deal
d1t05 - Me And My Uncle ->
d1t06 - Big River
d1t07 - Friend Of The Devil
d1t08 - New Minglewood Blues
d1t09 - Peggy-O
d2t01 - Jack Straw

Set 2:
d2t02 - Introduction
d2t03 - Scarlet Begonias ->
d2t04 - Fire On The Mountain
d2t05 - Samson And Delilah
d2t06 - From The Heart Of Me
d3t01 - I Need A Miracle ->
d3t02 - Drums ->
d3t03 - Not Fade Away ->
d3t04 - Goin' Down The Road Feeling Bad

Encore:
d3t05 - Johnny B. Goode


SHNTOOL OUTPUT:
    length     expanded size   cdr  WAVE problems filename
     1:32.07       16245308    ---   --   -----   gd78-10-22d1t01.wav
     6:39.48       70496540    ---   --   -----   gd78-10-22d1t02.wav
    21:13.10      224580764    ---   --   -----   gd78-10-22d1t03.wav
     7:31.12       79584668    ---   --   -----   gd78-10-22d1t04.wav
     3:12.35       33951164    ---   --   -----   gd78-10-22d1t05.wav
     7:39.03       80974700    ---   --   -----   gd78-10-22d1t06.wav
    10:09.07      107444108    ---   --   -----   gd78-10-22d1t07.wav
     5:56.67       62956028    ---   --   -----   gd78-10-22d1t08.wav
    12:05.52      128012348    ---   --   -----   gd78-10-22d1t09.wav
     6:38.51       70327196    ---   --   -----   gd78-10-22d2t01.wav
     1:08.01       11997596    ---   --   -----   gd78-10-22d2t02.wav
    11:43.43      124110380    ---   --   -----   gd78-10-22d2t03.wav
    14:03.63      148853420    ---   --   -----   gd78-10-22d2t04.wav
    10:18.20      109062284    ---   --   -----   gd78-10-22d2t05.wav
     4:10.25       44158844    ---   --   -----   gd78-10-22d2t06.wav
     7:42.13       81527420    ---   --   -----   gd78-10-22d3t01.wav
    13:20.67      141277628    ---   --   -----   gd78-10-22d3t02.wav
    21:37.31      228863756    ---   --   -----   gd78-10-22d3t03.wav
     8:10.29       86504252    ---   --   -----   gd78-10-22d3t04.wav
     4:40.30       49462604    ---   --   -----   gd78-10-22d3t05.wav
   179:33.14     1900391008 B                     (totals for 20 files)
c86aaafb4f393fc2cee8bb056abb5af9 *gd78-10-22d1t01.flac
2b1deab57eb06b0b99e132a472760c73 *gd78-10-22d1t02.flac
b9a88c569b58edc18539ef9bf8e951be *gd78-10-22d1t03.flac
08aa192323b5a4be91ab398f0c05f9b9 *gd78-10-22d1t04.flac
eb889b209b3a13bc3f084c1827de7c66 *gd78-10-22d1t05.flac
68a8eb326ad2e0f5d91ddd8830666f0a *gd78-10-22d1t06.flac
f5ad96af09e7175efbf2ca31d1778885 *gd78-10-22d1t07.flac
2e8359b6ffcb4799792062b2406854be *gd78-10-22d1t08.flac
554890ce61615a53208a41052261cdb4 *gd78-10-22d1t09.flac
34b0df0ce27ea1278bf03bc99d012848 *gd78-10-22d2t01.flac
d71429f5221cf2e0419c07bc612685a9 *gd78-10-22d2t02.flac
0cdfda7996a7ccb5283ee3d4acc4f42c *gd78-10-22d2t03.flac
d9833f273fef5a0059341caafa34c149 *gd78-10-22d2t04.flac
b64afeaf062a40e7a08f2b155c0948aa *gd78-10-22d2t05.flac
5d9c8298a028bab3e8fecee931fd47e6 *gd78-10-22d2t06.flac
4ed8821751e9f8edda36014ed2d5c35d *gd78-10-22d3t01.flac
1be7353a48ad35df1f489d19f9d94f12 *gd78-10-22d3t02.flac
0c05676aeb1d85b190562dd2b3182d6f *gd78-10-22d3t03.flac
0b9061c62c79abda372d236573ba5a27 *gd78-10-22d3t04.flac
ce37c598213dfdcab7eb478e85035819 *gd78-10-22d3t05.flac
ffp
gd78-10-22d1t01.flac:edda6078ee4341369dc8cc19ac394748
gd78-10-22d1t02.flac:99c2bea1001e9f1003aea0f8b507f141
gd78-10-22d1t03.flac:5453c56fe4e15de0186195398487a518
gd78-10-22d1t04.flac:ae3230e1638ef11a021a812891182cfe
gd78-10-22d1t05.flac:a3d324c35ee03b5dadd78ce27f14687e
gd78-10-22d1t06.flac:b4aed8b6e183cab745ad14f8f9b76f32
gd78-10-22d1t07.flac:d93a10c7abe744f3ac01a139abb01cba
gd78-10-22d1t08.flac:c6bbc304426a529ef1c57f847858cf23
gd78-10-22d1t09.flac:86d2c16b9f903c49c4a5d68d1e9b54d1
gd78-10-22d2t01.flac:8a8fd22ccca5c87ae90cc2d621708531
gd78-10-22d2t02.flac:70af68ca7326e094a2f2a1bcc93adf55
gd78-10-22d2t03.flac:edb91cd0d2f6b8d224bae3df783af015
gd78-10-22d2t04.flac:3f7cda1c236469714a8fdf32abb14c6f
gd78-10-22d2t05.flac:7247c58275470cb4f9da22a09c35cb2e
gd78-10-22d2t06.flac:b66c24d175c27a77177c5ecde6e2fddc
gd78-10-22d3t01.flac:28ae310d3fd48804812bf71c5fc32c22
gd78-10-22d3t02.flac:a127026ed0110b95dc95579e2b53a99b
gd78-10-22d3t03.flac:a582641fa5bc001e0a633bee7acf3a55
gd78-10-22d3t04.flac:efa3638ef6c990310f92ddddd03c8b6e
gd78-10-22d3t05.flac:194bfefc67f8093329ccdde60feee715

Comments
etreedb.org
For administrative requests email contact@etreedb.org
This website written by Tom H Anderson and maintained by the etreedb.org community.

Cached: Wed, 16 Oct 2019 17:32:32 EDT