Grateful Dead 10/22/78
Winterland Arena, San Francisco, CA
Source Summary
flac16; Matrix by Hunter Seamons using Final Cut Pro (FLAC>AIFF>Final Cut>WAV>FLAC)
Grateful Dead
Winterland Arena
San Francisco, CA
October 22, 1978

Jerry Garcia - Lead Guitar, Vocals
Donna Jean Godchaux - Vocals
Keith Godchaux - Keyboards
Mickey Hart - Drums
Bill Kreutzmann - Drums
Phil Lesh - Electric Bass, Vocals
Bob Weir - Rhythm Guitar, Vocals



*Matrix*

----------------------------------------------------
SBD (shnid=92567):

Recording Info:
SBD -> Cassette Master (Maxell UDXL-I) -> PCM (Analog Out) ->
Sony R500 (A>D Only) -> Peak -> AIFF

Transfer Info:
AIFF -> Samplitude Professional v10.1 -> FLAC
(3 Discs Audio / 2 Discs FLAC)

All Transfers and Mastering By Charlie Miller
charliemiller87@earthlink.net
July 3, 2008

----------------------------------------------------
AUD (shnid=94605):

OTB Release: 0018 16/44.1
Release Date: 2008-09-25
Band: Grateful Dead
Date: 1978-10-22 (Sunday)
Venue: Winterland
Location: San Fransico, CA
Analog Audience Source: Aud Master Cassettes (MAC)
Medium Stock Brands: MAC = 3 x Maxell UDXL II
Analog Lineage: 2 x  AKG d224e => Sony TC 158 >> MAC
Analog Sound Preservation: MAC >> Nakamichi CR7a => Korg MR-1000 >> DSF [1-bit 5.6448 MHz Stereo] >> Korg MR-1000 => Korg AudioGate >> WAV [24/96]
Taped By: Reinhart Hohlwein
Transfer By: Bob Menke
Mastering By: Derek McCabe
Tagged by: Jeff Thomas
Special: Rhinotrocity #5

---------------------------------------------------
Thank you to Charlie Miller for the SBD transfer,
to Reinhart Hohlwein for recording  the show,
and to Bob Menke, Derek McCabe, and Jeff Thomas for the AUD transfer.

Matrix by Hunter Seamons using Final Cut Pro (FLAC>AIFF>Final Cut>WAV>FLAC)
June 14, 2009


Set I
-----
d1t01 - Bill Graham Intro
d1t02 - Hamza el-Din 1
d1t03 - Hamza el-Din 2
d1t04 - Ollin Arrageed ->
d1t05 - Deal
d1t06 - Me & My Uncle ->
d1t07 - Big River
d1t08 - Friend Of The Devil
d1t09 - Minglewood Blues
d1t10 - Peggy-O
d2t01 - Jack Straw

Set II
-----
d2t02 - Bill Graham Intro
d2t03 - Scarlet Begonias ->
d2t04 - Fire On The Mountain
d2t05 - Samson & Delilah
d2t06 - From The Heart Of Me
d3t01 - I Need A Miracle ->
d3t02 - Drums* ->
d3t03 - Not Fade Away** ->
d3t04 - Goin' Down The Road**

Encore
------
d3t05  - Johnny B. Goode


* with Lee Oskar
** with John Cipollina


Notes:

1) Not Fade Away contains a Mind Left Body Jam, Caution Jam, and Mojo Jam.


    length     expanded size    cdr  WAVE problems  fmt   ratio  filename
     1:36.62       17080268 B   ---   --   ---xx  gd78-10-22d1t01.flac
     2:55.58       31006460 B   ---   --   ---xx  gd78-10-22d1t02.flac
     3:56.65       41783324 B   ---   --   ---xx  gd78-10-22d1t03.flac
    20:55.42      221480828 B   ---   --   ---xx  gd78-10-22d1t04.flac
     7:31.11       79582316 B   ---   --   ---xx  gd78-10-22d1t05.flac
     3:12.35       33951164 B   ---   --   ---xx  gd78-10-22d1t06.flac
     7:02.54       74567852 B   ---   --   ---xx  gd78-10-22d1t07.flac
    10:09.03      107434700 B   ---   --   ---xx  gd78-10-22d1t08.flac
     4:55.27       52101548 B   ---   --   ---xx  gd78-10-22d1t09.flac
    12:03.14      127570172 B   ---   --   ---xx  gd78-10-22d1t10.flac
     6:27.62       68412668 B   ---   --   ---xx  gd78-10-22d2t01.flac
     1:13.38       12966620 B   ---   --   ---xx  gd78-10-22d2t02.flac
    11:43.35      124091564 B   ---   --   ---xx  gd78-10-22d2t03.flac
    14:02.31      148601756 B   ---   --   ---xx  gd78-10-22d2t04.flac
     9:58.34      105567212 B   ---   --   ---xx  gd78-10-22d2t05.flac
     4:49.54       51106652 B   ---   --   ---xx  gd78-10-22d2t06.flac
     7:38.19       80835932 B   ---   --   ---xx  gd78-10-22d3t01.flac
    13:20.66      141275276 B   ---   --   ---xx  gd78-10-22d3t02.flac
    21:38.17      229007228 B   ---   --   ---xx  gd78-10-22d3t03.flac
     9:00.05       95267804 B   ---   --   ---xx  gd78-10-22d3t04.flac
     4:45.62       50419868 B   ---   --   ---xx  gd78-10-22d3t05.flac
   178:57.44     1894111212 B                            0.5991  (21 files)
ffp
gd78-10-22d1t01.flac:d703179470dd709510b1088f2f801b7e
gd78-10-22d1t02.flac:e79495b0660f4d129fb2e822f95314bb
gd78-10-22d1t03.flac:0ede8f2837c86cd418f8311ecd07ca6b
gd78-10-22d1t04.flac:0b0a66ed39c1ab24ffb3da3a8929ed81
gd78-10-22d1t05.flac:fd8ee7adf2def81d5ef876f22c56ca45
gd78-10-22d1t06.flac:c98f1dc3ebc181071951cea44fa0fb7b
gd78-10-22d1t07.flac:a76229d2fbdc92648c3ffefa4e7103a6
gd78-10-22d1t08.flac:22806cc8fa8cb2b87f5d1121b2c6c645
gd78-10-22d1t09.flac:7d2a907a13098014b8513c2176fecc65
gd78-10-22d1t10.flac:0aa01696f49268f99c4346a8e0361968
gd78-10-22d2t01.flac:0ddacc9a5ba57d063aa73bff5da4c9d8
gd78-10-22d2t02.flac:61fdb0fc09ffe1f52079dae5f075e697
gd78-10-22d2t03.flac:829252e62836c2c6be8106b430558bba
gd78-10-22d2t04.flac:8c2ee09c13e0b286e4ca02722f53953d
gd78-10-22d2t05.flac:9c003525ae6c6b7d2b05b3cfbe751ba2
gd78-10-22d2t06.flac:41c8420505d93301ad95984ba8de127d
gd78-10-22d3t01.flac:cbac62f9a75f35ee813b614084ef2836
gd78-10-22d3t02.flac:e234bc3f72921cf1be7808624d660746
gd78-10-22d3t03.flac:a53974faab270765ff7314a6cf30bd71
gd78-10-22d3t04.flac:e44840a6c388cf7414eb7300d7f48a26
gd78-10-22d3t05.flac:d96d72efc802b422002f44cc258f00fc
58591dd14db2e9692d758bb457e896d6 *gd78-10-22d1t01.flac
f65f3dd58668faf68b036ac0a16ca56b *gd78-10-22d1t02.flac
82bc23da5e3e7bfeaa11dca2a861f316 *gd78-10-22d1t03.flac
a5da3875754e94221aaddb444f51be9c *gd78-10-22d1t04.flac
c011b2dcc3186532a3f773e9302e9ccb *gd78-10-22d1t05.flac
896a69e654d09c7875fa7b40f726d1ea *gd78-10-22d1t06.flac
bcbcf1f77a9b82297569c467e49e69cf *gd78-10-22d1t07.flac
131a659326168e9530abc5afcbb1152e *gd78-10-22d1t08.flac
c105f4ed297fe582226bf33f3ec4b71a *gd78-10-22d1t09.flac
08a8b9876841762df672485e66474b42 *gd78-10-22d1t10.flac
eb0859c03d1289a62b9eb98bef7ca0db *gd78-10-22d2t01.flac
f2b6b8b5026ed07a1268eab054bbfa0a *gd78-10-22d2t02.flac
fa649c726c46c1911446737aa4950a8f *gd78-10-22d2t03.flac
03778dfe3acd0c4ad61c6dd0c9d871d8 *gd78-10-22d2t04.flac
a09e152ecc2606aaa89c1d179769bcd1 *gd78-10-22d2t05.flac
a1c9479799cfc721cec8f3cb57daec06 *gd78-10-22d2t06.flac
4b8726ac56a1968890cc5f1ce549625a *gd78-10-22d3t01.flac
30b6445ea999463bb4975900e9693cb0 *gd78-10-22d3t02.flac
24d01faf1fb963896f2ebfc954263cbb *gd78-10-22d3t03.flac
ed8a503883c544501852c998d50bdfbf *gd78-10-22d3t04.flac
bae1ad242cad95d20243e034cf589175 *gd78-10-22d3t05.flac

Comments
etreedb.org
For administrative requests email contact@etreedb.org
This website written by Tom H Anderson and maintained by the etreedb.org community.

Cached: Wed, 16 Oct 2019 18:16:34 EDT