Grateful Dead 01/14/78
Bakersfield Memorial Auditorium, Bakersfield, CA
Source Summary
flac16; Recording Info: SBD -> Cassette Master -> AIFF (24bit/96k); Transfer Info: AIFF -> Samplitude Professional v11.2.1 -> FLAC/16; All Mastering By Charlie Miller
Grateful Dead - January 14, 1978
Civic Auditorium - Bakersfield, CA

Recording Info:
SBD -> Cassette Master -> AIFF (24bit/96k)

Transfer Info:
AIFF -> Samplitude Professional v11.2.1 -> FLAC/16
(2 Discs Audio / 1 DVD FLAC)

All Mastering By Charlie Miller
charliemiller87@earthlink.net
April 17, 2016

Patch Info:
AKG D224E -> Cassette Master (shnid=105758) supplies:
Eyes Of The World (11:31 - 12:10)

Set 1:
d1t01 - Tuning
d1t02 - Jack Straw
d1t03 - Dire Wolf
d1t04 - Cassidy
d1t05 - They Love Each Other
d1t06 - Mama Tried ->
d1t07 - Me And My Uncle
d1t08 - Loser
d1t09 - Looks Like Rain
d1t10 - Deal
d1t11 - Let It Grow

Set 2:
d2t01 - Tuning
d2t02 - Samson And Delilah
d2t03 - Candyman
d2t04 - Estimated Prophet ->
d2t05 - Eyes Of The World ->
d2t06 - Space ->
d2t07 - Not Fade Away ->
d2t08 - One More Saturday Night


SHNTOOL OUTPUT:
    length     expanded size    cdr  WAVE problems  fmt   ratio  filename
     1:36.73       17106140 B   ---   --   ---xx   flac  0.4690  gd78-01-14s1t01.flac
     8:27.31       89507756 B   ---   --   ---xx   flac  0.5719  gd78-01-14s1t02.flac
     7:43.36       81757916 B   ---   --   ---xx   flac  0.5627  gd78-01-14s1t03.flac
     5:29.43       58136780 B   ---   --   ---xx   flac  0.5956  gd78-01-14s1t04.flac
     8:17.36       87755516 B   ---   --   ---xx   flac  0.5772  gd78-01-14s1t05.flac
     2:45.12       29134268 B   ---   --   ---xx   flac  0.6132  gd78-01-14s1t06.flac
     4:57.05       52402604 B   ---   --   ---xx   flac  0.5757  gd78-01-14s1t07.flac
     8:56.32       94625708 B   ---   --   ---xx   flac  0.5716  gd78-01-14s1t08.flac
     8:56.68       94710380 B   ---   --   ---xx   flac  0.5657  gd78-01-14s1t09.flac
     7:26.16       78712076 B   ---   --   ---xx   flac  0.5828  gd78-01-14s1t10.flac
    12:46.33      135200060 B   ---   --   ---xx   flac  0.6181  gd78-01-14s1t11.flac
     3:07.15       33022124 B   ---   --   ---xx   flac  0.4985  gd78-01-14s2t01.flac
    10:16.07      108678908 B   ---   --   ---xx   flac  0.5790  gd78-01-14s2t02.flac
    10:06.41      106994876 B   ---   --   ---xx   flac  0.5519  gd78-01-14s2t03.flac
    12:37.72      133704188 B   ---   --   ---xx   flac  0.5983  gd78-01-14s2t04.flac
    15:03.23      159343340 B   ---   --   ---xx   flac  0.6057  gd78-01-14s2t05.flac
     5:59.16       63365276 B   ---   --   ---xx   flac  0.6022  gd78-01-14s2t06.flac
    15:09.54      160474652 B   ---   --   ---xx   flac  0.5885  gd78-01-14s2t07.flac
     5:42.44       60432332 B   ---   --   ---xx   flac  0.6127  gd78-01-14s2t08.flac
   155:25.57     1645064900 B                            0.5837  (19 files)

9d13cd7833f371feb4370d891990b1bf *gd78-01-14s1t01.flac
97ee8bc3d4bc2c41bc8ba48448611815 *gd78-01-14s1t02.flac
f10600571fc5246d08a134cb4b02ce2a *gd78-01-14s1t03.flac
6760d9ae33b49899198737fad898ad76 *gd78-01-14s1t04.flac
eeca195b3a19b8bda5225346f3cf2747 *gd78-01-14s1t05.flac
3030d648519f0be8116671f47314f09d *gd78-01-14s1t06.flac
28f832e5b98ceb1b02a0e9bd0c6d349d *gd78-01-14s1t07.flac
162b9f6b99e22f7723c85a9cdaf9f632 *gd78-01-14s1t08.flac
cb47cd15cb6ddac97d19de826809a239 *gd78-01-14s1t09.flac
c8cf5b680d0a5ae0decf668ade78d622 *gd78-01-14s1t10.flac
fa28e45b89d77bbe352e7ceb1bde4c59 *gd78-01-14s1t11.flac
d01fa181eaac59e8abbc10d1ca471f96 *gd78-01-14s2t01.flac
2466977000714d415aec103cf90da912 *gd78-01-14s2t02.flac
1ad7ca1f71eb76cdf6bdbd6042b95f50 *gd78-01-14s2t03.flac
f2e2f0a6127468d5d31cac4a1ccdfeb1 *gd78-01-14s2t04.flac
c663a959de942133b8c48602f7f861bc *gd78-01-14s2t05.flac
a06da5990de116b637190176db5bde04 *gd78-01-14s2t06.flac
8f2762f78dfc8fde51cd9ef68316f260 *gd78-01-14s2t07.flac
2b63e16a4efffdc118e53347b7d06f2a *gd78-01-14s2t08.flac
ffp
gd78-01-14s1t01.flac:73ac3c00afc4838943309d9f81c1d3f8
gd78-01-14s1t02.flac:82f550cfb41d8ad91272628326f2850a
gd78-01-14s1t03.flac:a622f56edc9195da7cd1bb192a572847
gd78-01-14s1t04.flac:5de49b684cbc4b1bba6ee37b09d69af1
gd78-01-14s1t05.flac:3d0f4d4f384e487bdc4128cea356e1cd
gd78-01-14s1t06.flac:4bb424adebda53bbe2b612156e531c97
gd78-01-14s1t07.flac:774cb1f99e63474d0d642e9b08d2272b
gd78-01-14s1t08.flac:354c8e4f572b047b1149d4f9b08a6b73
gd78-01-14s1t09.flac:04e39e59eb506aacd5f70949752b0e26
gd78-01-14s1t10.flac:cbf3443c43417ee3a7370e6f87f60153
gd78-01-14s1t11.flac:b0d6188b724f9ae0b4e04fed0e8c4702
gd78-01-14s2t01.flac:7095be65ae5a7b3589d4ae1b1db9cdcc
gd78-01-14s2t02.flac:16133b9c1d4476373553fa58039528b3
gd78-01-14s2t03.flac:14410c4405065097056253e1bebbdd89
gd78-01-14s2t04.flac:a5fbc1d43f9874f7c86bf287a433dd91
gd78-01-14s2t05.flac:65c00727dc04c0ff2f1b331bec614c8f
gd78-01-14s2t06.flac:e10743b91f1347ab7e4b3870cc3734fe
gd78-01-14s2t07.flac:700e40520a290d3dd7727b1ff05c24d2
gd78-01-14s2t08.flac:09e05a4b198c7cdaf4724545703e626f

Comments
etreedb.org
For administrative requests email contact@etreedb.org
This website written by Tom H Anderson and maintained by the etreedb.org community.

Cached: Wed, 18 Sep 2019 12:34:44 EDT