Grateful Dead 12/31/78
Winterland Arena, San Francisco, CA
Source Summary
flac16/48kHz; Mark Severson's Master Audience Cassettes; Sony ECM-270 mics (mounted on railing, right balcony, even with the soundboard)> Sony TC-158SD (Maxell UDXLII); Transfer Info: Master Cassettes (Nakamichi DR-1)> Tascam DA-3000 (DSF 1-bit/5.6 MHz) > dBpoweramp 24/96 > Adobe Audition CC 2019 > TLH flac2496; 24-bit > 16-bit via dBpoweramp
Grateful Dead
Winterland Arena
San Francisco, CA
Sunday  December 31st, 1978

This is a 16/48 fileset. 24-bit > 16-bit via dBpoweramp

Source Info:
Mark Severson's Master Audience Cassettes; Sony ECM-270 mics (mounted on railing, right balcony, even with the soundboard)> Sony TC-158SD (Maxell UDXLII)

Transfer Info:
Master Cassettes (Nakamichi DR-1)> Tascam DA-3000 (DSF 1-bit/5.6 MHz) > dBpoweramp 24/96 > Adobe Audition CC 2019 > TLH flac2496

Notes:
- Thanks to Mark Severson for the master cassettes
- Thanks to Charlie Miller for the transfer and coordinating this effort
- Thanks to Rheinhart Holwein and all the folks responsible for the shnid106102 AKG D224E source which supplies a 0:12 patch in "Playin' In The Band", a 0:20 patch in "Not Fade Away", an 0:08 patch in "St. Stephen", as well as "And We Bid You Good Night" in its entirety
- "I Need A Miracle" with Matthew Kelly on harmonica
- "Drums" with Lee Oskar and others
- "Around & Around" with John Cipollina on guitar
- Pitch corrected

Mastered by Scott Clugston
February 2019

Set One:
s1t01 - Happy New Year
s1t02 - Sugar Magnolia >
s1t03 - Scarlet Begonias >
s1t04 - Fire On The Mountain
s1t05 - Uncle Bobo
s1t06 - Me & My Uncle >
s1t07 - Big River
s1t08 - Friend Of The Devil
s1t09 - It's All Over Now
s1t10 - Stagger Lee
s1t11 - From The Heart Of Me >
s1t12 - Sunshine Daydream

Set Two:
s2t01 - Crowd
s2t02 - Samson & Delilah
s2t03 - Ramble On Rose
s2t04 - I Need A Miracle >
s2t05 - Terrapin Station >
s2t06 - Playing In The Band >
s2t07 - Drums >
s2t08 - Not Fade Away >
s2t09 - Around & Around

Set Three:
s3t01 - Crowd
s3t02 - Dark Star >
s3t03 - The Other One >
        Dark Star Jam >
s3t04 - Wharf Rat >
s3t05 - St. Stephen >
s3t06 - Good Lovin'
s3t07 - Encore Break
s3t08 - Casey Jones >
s3t09 - Johnny B. Goode
s3t10 - //And We Bid You Goodnight

    length     expanded size    cdr  WAVE problems  fmt   ratio  filename
     4:54.027      56453164 B   cxx   --   ---xx   flac  0.6168  gd78-12-31 s1t01 Happy New Year.flac
     5:49.440      67092524 B   cxx   --   ---xx   flac  0.6545  gd78-12-31 s1t02 Sugar Magnolia.flac
    11:52.840     136865324 B   cxx   --   ---xx   flac  0.6453  gd78-12-31 s1t03 Scarlet Begonias.flac
    14:05.293     162296364 B   cxx   --   ---xx   flac  0.6404  gd78-12-31 s1t04 Fire On The Mountain.flac
     3:25.840      39521324 B   cxx   --   ---xx   flac  0.5755  gd78-12-31 s1t05 Uncle BoBo.flac
     3:07.293      35960364 B   cxx   --   ---xx   flac  0.6588  gd78-12-31 s1t06 Me & My Uncle.flac
     8:11.427      94353964 B   cxx   --   ---xx   flac  0.6315  gd78-12-31 s1t07 Big River.flac
    12:29.400     143884844 B   cxx   --   ---xx   flac  0.6148  gd78-12-31 s1t08 Friend Of The Devil.flac
    10:51.053     125002284 B   cxx   --   ---xx   flac  0.6210  gd78-12-31 s1t09 It's All Over Now.flac
     9:01.013     103874604 B   cxx   --   ---xx   flac  0.6181  gd78-12-31 s1t10 Stagger Lee.flac
     3:45.333      43264044 B   cxx   --   ---xx   flac  0.6536  gd78-12-31 s1t11 From The Heart Of Me.flac
     3:13.259      37105784 B   cxx   --   ---xx   flac  0.6665  gd78-12-31 s1t12 Sunshine Daydream.flac
     1:02.360      11973164 B   cxx   --   ---xx   flac  0.5600  gd78-12-31 s2t01 Crowd.flac
     9:04.760     104593964 B   cxx   --   ---xx   flac  0.6376  gd78-12-31 s2t02 Samson & Delilah.flac
    11:20.587     130672684 B   cxx   --   ---xx   flac  0.6089  gd78-12-31 s2t03 Ramble On Rose.flac
    11:13.240     129262124 B   cxx   --   ---xx   flac  0.6486  gd78-12-31 s2t04 I Need A Miracle.flac
    12:19.400     141964844 B   cxx   --   ---xx   flac  0.6307  gd78-12-31 s2t05 Terrapin Station.flac
    12:58.747     149519404 B   cxx   --   ---xx   flac  0.6552  gd78-12-31 s2t06 Playin' In The Band.flac
    19:04.973     219834924 B   cxx   --   ---xx   flac  0.6033  gd78-12-31 s2t07 Drums.flac
    19:39.093     226385964 B   cxx   --   ---xx   flac  0.6232  gd78-12-31 s2t08 Not Fade Away.flac
     9:15.474     106651100 B   cxx   --   ---xx   flac  0.6537  gd78-12-31 s2t09 Around & Around.flac
     2:37.000      30144044 B   cxx   --   ---xx   flac  0.5355  gd78-12-31 s3t01 Crowd.flac
    13:38.613     157173804 B   cxx   --   ---xx   flac  0.6594  gd78-12-31 s3t02 Dark Star.flac
     3:49.093      43985964 B   cxx   --   ---xx   flac  0.6417  gd78-12-31 s3t03 The Other One_Dark Star Jam.flac
    10:56.280     126005804 B   cxx   --   ---xx   flac  0.6156  gd78-12-31 s3t04 Wharf Rat.flac
     7:48.693      89989164 B   cxx   --   ---xx   flac  0.6462  gd78-12-31 s3t05 St. Stephen.flac
     9:54.960     114232364 B   cxx   --   ---xx   flac  0.6780  gd78-12-31 s3t06 Good Lovin'.flac
    16:45.773     193108524 B   cxx   --   ---xx   flac  0.6072  gd78-12-31 s3t07 Encore Break.flac
     5:15.693      60613164 B   cxx   --   ---xx   flac  0.6466  gd78-12-31 s3t08 Casey Jones.flac
     8:48.893     101547564 B   cxx   --   ---xx   flac  0.6515  gd78-12-31 s3t09 Johnny B. Goode.flac
     5:39.519      65187612 B   cxx   --   ---xx   flac  0.5011  gd78-12-31 s3t10 And We Bid You Good Night.flac
   281:59.372    3248520768 B                            0.6294  (31 files)


ffp
gd78-12-31 s1t01 Happy New Year.flac:95babe6b22d0f01c1cb3bdfadcd82019
gd78-12-31 s1t02 Sugar Magnolia.flac:957c45e41c001f768fa35ef3720a9339
gd78-12-31 s1t03 Scarlet Begonias.flac:d4e769c8d3103af0bd9b7d383778fa79
gd78-12-31 s1t04 Fire On The Mountain.flac:a1ba2c5e54c2bd364777bdf811110e8b
gd78-12-31 s1t05 Uncle BoBo.flac:a7eb6c4ebb080ed9b6c7c7f39f1e04a7
gd78-12-31 s1t06 Me & My Uncle.flac:816868b084b0253038f9767ad470cd2e
gd78-12-31 s1t07 Big River.flac:a1d64c3bc9431b8f4e0718ba5ee22364
gd78-12-31 s1t08 Friend Of The Devil.flac:90238f7e4698442ae95b5735fe411a0c
gd78-12-31 s1t09 It's All Over Now.flac:a8ac9f59bd1ce248eeb452207082a92e
gd78-12-31 s1t10 Stagger Lee.flac:b3b6377ba809ffb5fff09a9fccd8e33a
gd78-12-31 s1t11 From The Heart Of Me.flac:0e00ad63cbc306c43050a47d657b4735
gd78-12-31 s1t12 Sunshine Daydream.flac:b12418bf2e76578a43f2460cc674eced
gd78-12-31 s2t01 Crowd.flac:5863641fa1a2a26aebb7f34b23cc3e0e
gd78-12-31 s2t02 Samson & Delilah.flac:e0156e1126889acac4bc6c9ffc20cab0
gd78-12-31 s2t03 Ramble On Rose.flac:b25e2fbb0b17b6a476a6fd9bfe7229f7
gd78-12-31 s2t04 I Need A Miracle.flac:d231c1f2fb5a582d7fad1c69a31de91c
gd78-12-31 s2t05 Terrapin Station.flac:b596c864d532b97ba41aa352aef8098d
gd78-12-31 s2t06 Playin' In The Band.flac:99740c91c62db7577e39052a3e9736fc
gd78-12-31 s2t07 Drums.flac:9e5c94e2380bafc715a132cc833099d6
gd78-12-31 s2t08 Not Fade Away.flac:356fee6a796f5bd5abcb5f068c88e868
gd78-12-31 s2t09 Around & Around.flac:140ec7f341d1b27fa5e965b655def7b2
gd78-12-31 s3t01 Crowd.flac:b172c0381d6ab6e36a19f27635818aec
gd78-12-31 s3t02 Dark Star.flac:4775787ed7237b93e3ec3f98793ca5f6
gd78-12-31 s3t03 The Other One_Dark Star Jam.flac:b764cc596957be2703c8db1b86b0481b
gd78-12-31 s3t04 Wharf Rat.flac:6352399e6e4c45c69949faddd512f32d
gd78-12-31 s3t05 St. Stephen.flac:a51a78521d516a0d256b547c54f3c4ea
gd78-12-31 s3t06 Good Lovin'.flac:db5a281a977cf1c2705a6524c5cb8ce9
gd78-12-31 s3t07 Encore Break.flac:fea1351ba3b314c4573523ae00de8fec
gd78-12-31 s3t08 Casey Jones.flac:b6e829db0a4d6589753b6376fdc216e7
gd78-12-31 s3t09 Johnny B. Goode.flac:d485222c3a6f8c46904f231387cb5364
gd78-12-31 s3t10 And We Bid You Good Night.flac:c2471938f3416e8d35cfb770acc06906
9c53a2ed7d8c8a01e841cd6514266f6d *gd78-12-31 s1t01 Happy New Year.flac
5927ff6a755edf0219b24a62b3307486 *gd78-12-31 s1t02 Sugar Magnolia.flac
fb8ca2af4a24a5a3fc1ffea3713db28a *gd78-12-31 s1t03 Scarlet Begonias.flac
331e88e7f935005a72cbd861631b789c *gd78-12-31 s1t04 Fire On The Mountain.flac
76f61dbc555fc5bdcadb16353110452e *gd78-12-31 s1t05 Uncle BoBo.flac
829a4900b36a538c9afd14c3fbe64bf9 *gd78-12-31 s1t06 Me & My Uncle.flac
7c8511060d9679be77837c3b278feeb3 *gd78-12-31 s1t07 Big River.flac
0538379a0311a37bddde4b57e1119cfb *gd78-12-31 s1t08 Friend Of The Devil.flac
b8364de5350c89a2f5fe27f932b3c64c *gd78-12-31 s1t09 It's All Over Now.flac
cbad95de7c27d161031e3024457a4044 *gd78-12-31 s1t10 Stagger Lee.flac
c43c50116345cbe1847f1cb17c4cb6d1 *gd78-12-31 s1t11 From The Heart Of Me.flac
5fe2d55071460e73fb31c16a11150856 *gd78-12-31 s1t12 Sunshine Daydream.flac
b4baa668fb4d9950c7fb56338722ee49 *gd78-12-31 s2t01 Crowd.flac
85680395136d581f1cfbd84e02e0b249 *gd78-12-31 s2t02 Samson & Delilah.flac
d6e926862deb433df4cdd144b86fc83d *gd78-12-31 s2t03 Ramble On Rose.flac
8922cbf1943ed0ed7f22403ab632d79e *gd78-12-31 s2t04 I Need A Miracle.flac
80132c081355add290f70dfc5e6a42ed *gd78-12-31 s2t05 Terrapin Station.flac
b22605fad63ba6096e1713c129ed3ca4 *gd78-12-31 s2t06 Playin' In The Band.flac
3ab9f20222a01776f7dc72f4be170850 *gd78-12-31 s2t07 Drums.flac
3b310df01459fd650f2e38d393f97391 *gd78-12-31 s2t08 Not Fade Away.flac
1dc9b802c5d805166781e8977241ab1b *gd78-12-31 s2t09 Around & Around.flac
1a9c54278d97454ff42da1a8230bc260 *gd78-12-31 s3t01 Crowd.flac
55b0c74b80a6324d941b862953db50cd *gd78-12-31 s3t02 Dark Star.flac
7a5a9752291a18337d179cadc2a4cb4f *gd78-12-31 s3t03 The Other One_Dark Star Jam.flac
0e6dc810fbebfb16077ab64e37702256 *gd78-12-31 s3t04 Wharf Rat.flac
00627a1fd37bac4677353d5038f36183 *gd78-12-31 s3t05 St. Stephen.flac
d8269e98a7483930d611867878ea80c6 *gd78-12-31 s3t06 Good Lovin'.flac
db49277989f3f218e8c4a6de3d87a2b6 *gd78-12-31 s3t07 Encore Break.flac
b5993398075e49589775b729ce779bdc *gd78-12-31 s3t08 Casey Jones.flac
669fd4d3b04d7941f7ba63381b628269 *gd78-12-31 s3t09 Johnny B. Goode.flac
33b683cffeb077552a7114111ff69d45 *gd78-12-31 s3t10 And We Bid You Good Night.flac

Comments
etreedb.org
For administrative requests email contact@etreedb.org
This website written by Tom H Anderson and maintained by the etreedb.org community.

Cached: Wed, 18 Sep 2019 12:36:59 EDT