Grateful Dead 12/31/78
Winterland Arena, San Francisco, CA
Source Summary
flac24; Mark Severson's Master Audience Cassettes; Sony ECM-270 mics (mounted on railing, right balcony, even with the soundboard)> Sony TC-158SD (Maxell UDXLII); Transfer Info: Master Cassettes (Nakamichi DR-1)> Tascam DA-3000 (DSF 1-bit/5.6 MHz) > dBpoweramp 24/96 > Adobe Audition CC 2019 > TLH flac2496
Grateful Dead
Winterland Arena
San Francisco, CA
Sunday  December 31st, 1978

Source Info:
Mark Severson's Master Audience Cassettes; Sony ECM-270 mics (mounted on railing, right balcony, even with the soundboard)> Sony TC-158SD (Maxell UDXLII)

Transfer Info:
Master Cassettes (Nakamichi DR-1)> Tascam DA-3000 (DSF 1-bit/5.6 MHz) > dBpoweramp 24/96 > Adobe Audition CC 2019 > TLH flac2496

Notes:
- Thanks to Mark Severson for the master cassettes
- Thanks to Charlie Miller for the transfer and coordinating this effort
- Thanks to Rheinhart Holwein and all the folks responsible for the shnid106102 AKG D224E source which supplies a 0:12 patch in "Playin' In The Band", a 0:20 patch in "Not Fade Away", an 0:08 patch in "St. Stephen", as well as "And We Bid You Good Night" in its entirety
- "I Need A Miracle" with Matthew Kelly on harmonica
- "Drums" with Lee Oskar and others
- "Around & Around" with John Cipollina on guitar
- Pitch corrected

Mastered by Scott Clugston
February 2019

Set One:
s1t01 - Happy New Year
s1t02 - Sugar Magnolia >
s1t03 - Scarlet Begonias >
s1t04 - Fire On The Mountain
s1t05 - Uncle Bobo
s1t06 - Me & My Uncle >
s1t07 - Big River
s1t08 - Friend Of The Devil
s1t09 - It's All Over Now
s1t10 - Stagger Lee
s1t11 - From The Heart Of Me >
s1t12 - Sunshine Daydream

Set Two:
s2t01 - Crowd
s2t02 - Samson & Delilah
s2t03 - Ramble On Rose
s2t04 - I Need A Miracle >
s2t05 - Terrapin Station >
s2t06 - Playing In The Band >
s2t07 - Drums >
s2t08 - Not Fade Away >
s2t09 - Around & Around

Set Three:
s3t01 - Crowd
s3t02 - Dark Star >
s3t03 - The Other One >
        Dark Star Jam >
s3t04 - Wharf Rat >
s3t05 - St. Stephen >
s3t06 - Good Lovin'
s3t07 - Encore Break
s3t08 - Casey Jones >
s3t09 - Johnny B. Goode
s3t10 - //And We Bid You Goodnight

    length     expanded size    cdr  WAVE problems  fmt   ratio  filename
     4:54.027     169359404 B   cxx   --   ---xx   flac  0.6802  gd78-12-31 s1t01 Happy New Year.flac
     5:49.440     201277484 B   cxx   --   ---xx   flac  0.6945  gd78-12-31 s1t02 Sugar Magnolia.flac
    11:52.840     410595884 B   cxx   --   ---xx   flac  0.6977  gd78-12-31 s1t03 Scarlet Begonias.flac
    14:05.293     486889004 B   cxx   --   ---xx   flac  0.6972  gd78-12-31 s1t04 Fire On The Mountain.flac
     3:25.840     118563884 B   cxx   --   ---xx   flac  0.6735  gd78-12-31 s1t05 Uncle BoBo.flac
     3:07.293     107881004 B   cxx   --   ---xx   flac  0.7019  gd78-12-31 s1t06 Me & My Uncle.flac
     8:11.427     283061804 B   cxx   --   ---xx   flac  0.6906  gd78-12-31 s1t07 Big River.flac
    12:29.400     431654444 B   cxx   --   ---xx   flac  0.6853  gd78-12-31 s1t08 Friend Of The Devil.flac
    10:51.053     375006764 B   cxx   --   ---xx   flac  0.6849  gd78-12-31 s1t09 It's All Over Now.flac
     9:01.013     311623724 B   cxx   --   ---xx   flac  0.6826  gd78-12-31 s1t10 Stagger Lee.flac
     3:45.333     129792044 B   cxx   --   ---xx   flac  0.7092  gd78-12-31 s1t11 From The Heart Of Me.flac
     3:13.259     111317264 B   cxx   --   ---xx   flac  0.6982  gd78-12-31 s1t12 Sunshine Daydream.flac
     1:02.360      35919404 B   cxx   --   ---xx   flac  0.6656  gd78-12-31 s2t01 Crowd.flac
     9:04.760     313781804 B   cxx   --   ---xx   flac  0.6920  gd78-12-31 s2t02 Samson & Delilah.flac
    11:20.587     392017964 B   cxx   --   ---xx   flac  0.6824  gd78-12-31 s2t03 Ramble On Rose.flac
    11:13.240     387786284 B   cxx   --   ---xx   flac  0.6959  gd78-12-31 s2t04 I Need A Miracle.flac
    12:19.400     425894444 B   cxx   --   ---xx   flac  0.6898  gd78-12-31 s2t05 Terrapin Station.flac
    12:58.747     448558124 B   cxx   --   ---xx   flac  0.7000  gd78-12-31 s2t06 Playin' In The Band.flac
    19:04.973     659504684 B   cxx   --   ---xx   flac  0.6825  gd78-12-31 s2t07 Drums.flac
    19:39.093     679157804 B   cxx   --   ---xx   flac  0.6835  gd78-12-31 s2t08 Not Fade Away.flac
     9:15.474     319953212 B   cxx   --   ---xx   flac  0.6939  gd78-12-31 s2t09 Around & Around.flac
     2:37.000      90432044 B   cxx   --   ---xx   flac  0.6523  gd78-12-31 s3t01 Crowd.flac
    13:38.613     471521324 B   cxx   --   ---xx   flac  0.7029  gd78-12-31 s3t02 Dark Star.flac
     3:49.093     131957804 B   cxx   --   ---xx   flac  0.6888  gd78-12-31 s3t03 The Other One_Dark Star Jam.flac
    10:56.280     378017324 B   cxx   --   ---xx   flac  0.6797  gd78-12-31 s3t04 Wharf Rat.flac
     7:48.693     269967404 B   cxx   --   ---xx   flac  0.6937  gd78-12-31 s3t05 St. Stephen.flac
     9:54.960     342697004 B   cxx   --   ---xx   flac  0.7084  gd78-12-31 s3t06 Good Lovin'.flac
    16:45.773     579325484 B   cxx   --   ---xx   flac  0.6843  gd78-12-31 s3t07 Encore Break.flac
     5:15.693     181839404 B   cxx   --   ---xx   flac  0.6944  gd78-12-31 s3t08 Casey Jones.flac
     8:48.893     304642604 B   cxx   --   ---xx   flac  0.6976  gd78-12-31 s3t09 Johnny B. Goode.flac
     5:39.519     195562754 B   cxx   --   ---xx   flac  0.5510  gd78-12-31 s3t10 And We Bid You Good Night.flac
   281:59.372    9745559582 B                            0.6876  (31 files)


ffp
gd78-12-31 s1t01 Happy New Year.flac:b2b6b8ea9de387a27467910f93245982
gd78-12-31 s1t02 Sugar Magnolia.flac:2985ac414534706b52e2b6db4fee00e1
gd78-12-31 s1t03 Scarlet Begonias.flac:3d9d92c8db0385470cd7c44545bcee1f
gd78-12-31 s1t04 Fire On The Mountain.flac:cb45e0b6871e74b8651bb880c2d0a649
gd78-12-31 s1t05 Uncle BoBo.flac:665a9ddba07d1ff845f2f5bc6ccdb01e
gd78-12-31 s1t06 Me & My Uncle.flac:2f50121d0c46c53d05a8018c80a8ad4d
gd78-12-31 s1t07 Big River.flac:f12eb793ea38c143015bfa2e7ea5723d
gd78-12-31 s1t08 Friend Of The Devil.flac:0ae6e4b35e8cec5f21d4149fbf773824
gd78-12-31 s1t09 It's All Over Now.flac:fd03fe6b4ba48878950a721c04f56dee
gd78-12-31 s1t10 Stagger Lee.flac:8396e0ebd7d851349c075c1d8c0241ca
gd78-12-31 s1t11 From The Heart Of Me.flac:a94f2da426b39a15bfa136b7b33b1847
gd78-12-31 s1t12 Sunshine Daydream.flac:d16c039d047729bda991b2c8c56be61f
gd78-12-31 s2t01 Crowd.flac:16282dc292e2d53ef21f82840cdbd004
gd78-12-31 s2t02 Samson & Delilah.flac:c9b896fedf05058654767c96cd62daf9
gd78-12-31 s2t03 Ramble On Rose.flac:6643b7aa6fe53ed1aa0db6a10b8c0139
gd78-12-31 s2t04 I Need A Miracle.flac:271dc6f4251b4851d79dc468eb6f67d7
gd78-12-31 s2t05 Terrapin Station.flac:ea5d135ffc3c430b9564b7550397cd85
gd78-12-31 s2t06 Playin' In The Band.flac:e8a2b7f8c60ca2320869bde69f204a1d
gd78-12-31 s2t07 Drums.flac:3779d817549cd0cc2bfb37eb38ac49fe
gd78-12-31 s2t08 Not Fade Away.flac:c7d0084191cfb3e2287d3c60d971c2e1
gd78-12-31 s2t09 Around & Around.flac:bcb60fac1114347da359996211da1af9
gd78-12-31 s3t01 Crowd.flac:cca30c869de88264c118ad4a1117b163
gd78-12-31 s3t02 Dark Star.flac:0e77bf1ddec39e88f621a9a95b8adeda
gd78-12-31 s3t03 The Other One_Dark Star Jam.flac:6700a327352713d3fcf926d1a364e01d
gd78-12-31 s3t04 Wharf Rat.flac:3bf69268e1bf1f2fd2e7c4087b1bdf13
gd78-12-31 s3t05 St. Stephen.flac:2bb34d384a50d27286a1efa9748377bd
gd78-12-31 s3t06 Good Lovin'.flac:bcd62e03e0ff1661ebca754b24cbcd47
gd78-12-31 s3t07 Encore Break.flac:e4b9f0ec7d4a950d20287769fe47fb16
gd78-12-31 s3t08 Casey Jones.flac:a424a0b83a89c9a58763d7925e3855ea
gd78-12-31 s3t09 Johnny B. Goode.flac:2d768d3f41114cc6dfc0834785db2d55
gd78-12-31 s3t10 And We Bid You Good Night.flac:e0cd2d4956b8c1c3af4a6eb7d95e2ecb
72d9331dce0f5305065aa58cd35cd5cf *gd78-12-31 s1t01 Happy New Year.flac
03f4899054f804f5d71a3903fb1e1f56 *gd78-12-31 s1t02 Sugar Magnolia.flac
ed7449c8beafe1368db2ec30d923fada *gd78-12-31 s1t03 Scarlet Begonias.flac
71cfee04c1732116f221012719c03dda *gd78-12-31 s1t04 Fire On The Mountain.flac
bf10000098487856bf9556b206a05ea8 *gd78-12-31 s1t05 Uncle BoBo.flac
357960433ce705ced5adf6472c4c5d01 *gd78-12-31 s1t06 Me & My Uncle.flac
b9829b3d04e25f122c3dd4d80e5c00e6 *gd78-12-31 s1t07 Big River.flac
44df37850069378faf61b0aa1d3acdc4 *gd78-12-31 s1t08 Friend Of The Devil.flac
293d65011db52de81e70dfc030d1fd43 *gd78-12-31 s1t09 It's All Over Now.flac
1947b0f6a66e9c584cdb1614925f23af *gd78-12-31 s1t10 Stagger Lee.flac
56567f682ed78e09e7dbc3db2e0f922e *gd78-12-31 s1t11 From The Heart Of Me.flac
43dfb1ff7761119c42b787a9ddd32a52 *gd78-12-31 s1t12 Sunshine Daydream.flac
3574c6ec1a69577be36686f968cdca2a *gd78-12-31 s2t01 Crowd.flac
6d5ea1f4783dbf150e89f4b451ce156d *gd78-12-31 s2t02 Samson & Delilah.flac
36c4c18d21556df7f4888b51d1d61996 *gd78-12-31 s2t03 Ramble On Rose.flac
6387b12fd289556f44a1c7e4cf0ea57b *gd78-12-31 s2t04 I Need A Miracle.flac
6bb59589670195bfb8e916202e9f87e4 *gd78-12-31 s2t05 Terrapin Station.flac
a7f2f7cf081e9ae560d0f35a0bc281e4 *gd78-12-31 s2t06 Playin' In The Band.flac
ae2b6a7105e7bc0e45b66bb7dda2e1f2 *gd78-12-31 s2t07 Drums.flac
013bf6cfbc1d0d8be0537f8f27ce911a *gd78-12-31 s2t08 Not Fade Away.flac
fb804153ff387db667e1a82a728470c4 *gd78-12-31 s2t09 Around & Around.flac
6279c61b02083e8b29f92420b02d7022 *gd78-12-31 s3t01 Crowd.flac
5ca6910d39f1f43107836e5a6d3277f3 *gd78-12-31 s3t02 Dark Star.flac
db985c933070566052b5df14a5166996 *gd78-12-31 s3t03 The Other One_Dark Star Jam.flac
6284a31568c15b5b4fd50983d6e6acfe *gd78-12-31 s3t04 Wharf Rat.flac
96eea6bde4f6d6bec528ac4ae14006c3 *gd78-12-31 s3t05 St. Stephen.flac
1b968dfc7e80f0a91af328b9988d56bb *gd78-12-31 s3t06 Good Lovin'.flac
d74e7591c53c0370928ef95ea7e33445 *gd78-12-31 s3t07 Encore Break.flac
d920a95202e2af37bbc4aa363f29db1c *gd78-12-31 s3t08 Casey Jones.flac
09e2eba6b6262d714c318874ae8c2a28 *gd78-12-31 s3t09 Johnny B. Goode.flac
8f2b5e5ec8b0af96f05275c05282cb0a *gd78-12-31 s3t10 And We Bid You Good Night.flac

Comments
etreedb.org
For administrative requests email contact@etreedb.org
This website written by Tom H Anderson and maintained by the etreedb.org community.

Cached: Wed, 16 Oct 2019 17:32:07 EDT