Grateful Dead 12/31/78
Winterland Arena, San Francisco, CA
Source Summary
flac16/44.1khz Recording Info: AKG 414 (Omni) > Cassette Master (Nakamichi 550/Maxell UDXLI). Recorded front row center balcony by Dennis Koda. Transfer Info: Cassette Master (Nakamichi CR-7A) > Tascam DA-3000 (DSF 1-bit/5.6MHz) > Sound Forge Pro 13 > Adobe Audition 2020 > Samplitude Pro X5 Suite > FLAC/24. All Transfers and Mastering by Charlie Miller
Grateful Dead - December 31, 1978
Winterland Arena - San Francisco, CA

Recording Info:
AKG 414 (Omni) > Cassette Master (Nakamichi 550/Maxell UDXLI)

Transfer Info:
Cassette Master (Nakamichi CR-7A) > Tascam DA-3000 (DSF 1-bit/5.6MHz) >
Sound Forge Pro 13 > Adobe Audition 2020 > Samplitude Pro X5 Suite > FLAC/24
(5 Discs Audio / 1 DVD FLAC)

Patch Info:
Sony ECM-270 > Cassette Master (shnid=145356) supplies:
Fire On The Mountain (12:42 - 13:30)
It's All Over Now (7:18 - 7:53)
Tuning (0:00 - 0:12)
Ramble On Rose (7:07 - 9:49)
Playing In The Band (10:31 - 10:46)
Around And Around (0:00 - 0:05)
Good Lovin' (5:02 - 5:09)
Encore Break (4:33 - end of track)
Casey Jones (0:00 - 0:36)
And We Bid You Goodnight (complete track)

All Transfers and Mastering by Charlie Miller
charliemiller87@earthlink.net
September 13, 2020

Notes:
-- Recorded front row center balcony by Dennis Koda
-- Thanks to Mark Severson and Scott Clugston for the patch source
-- I Need A Miracle with Matthew Kelly
-- Drums with Lee Oskar
-- Not Fade Away and Around And Around with John Cipollina

Set 1:
01 - Tuning
02 - Midnight Madness
03 - Sugar Magnolia >
04 - Scarlet Begonias >
05 - Fire On The Mountain
06 - Equipment Break
07 - Me And My Uncle >
08 - Big River
09 - Friend Of The Devil
10 - It's All Over Now
11 - Stagger Lee
12 - From The Heart Of Me >
13 - Sunshine Daydream

Set 2:
14 - Tuning
15 - Samson And Delilah
16 - Ramble On Rose
17 - I Need A Miracle >
18 - Terrapin Station >
19 - Playing In The Band >
20 - Drums >
21 - Not Fade Away >
22 - Around And Around

Set 3:
23 - Tuning
24 - Dark Star >
25 - The Other One >
26 - Dark Star >
27 - Wharf Rat >
28 - St. Stephen >
29 - Good Lovin'

Encore:
30 - Encore Break
31 - Casey Jones >
32 - Johnny B. Goode
33 - Post-Show House Music
34 - And We Bid You Goodnight


SHNTOOL OUTPUT:
    length     expanded size    cdr  WAVE problems  fmt   ratio  filename
     5:57.02       62979548 B   ---   --   ---xx   flac  0.6127  01 Tuning.flac
     2:04.64       22024172 B   ---   --   ---xx   flac  0.6472  02 Midnight Madness.flac
     5:50.56       61871756 B   ---   --   ---xx   flac  0.6389  03 Sugar Magnolia.flac
    11:52.52      125719148 B   ---   --   ---xx   flac  0.6024  04 Scarlet Begonias.flac
    13:40.63      144796220 B   ---   --   ---xx   flac  0.6094  05 Fire On The Mountain.flac
     4:05.42       43316828 B   ---   --   ---xx   flac  0.5552  06 Equipment Break.flac
     3:06.72       32979788 B   ---   --   ---xx   flac  0.6197  07 Me And My Uncle.flac
     8:10.60       86577164 B   ---   --   ---xx   flac  0.6113  08 Big River.flac
    12:30.02      132304748 B   ---   --   ---xx   flac  0.5787  09 Friend Of The Devil.flac
    10:51.05      114848204 B   ---   --   ---xx   flac  0.5945  10 It's All Over Now.flac
     9:20.62       98929868 B   ---   --   ---xx   flac  0.6090  11 Stagger Lee.flac
     3:45.19       39734732 B   ---   --   ---xx   flac  0.6378  12 From The Heart Of Me.flac
     3:11.04       33701852 B   ---   --   ---xx   flac  0.6342  13 Sunshine Daydream.flac
     1:02.64       11087372 B   ---   --   ---xx   flac  0.5413  14 Tuning.flac
     9:25.39       99757772 B   ---   --   ---xx   flac  0.6027  15 Samson And Delilah.flac
    11:22.19      120349532 B   ---   --   ---xx   flac  0.5855  16 Ramble On Rose.flac
    11:09.17      118051628 B   ---   --   ---xx   flac  0.6120  17 I Need A Miracle.flac
    12:19.67      130517228 B   ---   --   ---xx   flac  0.5788  18 Terrapin Station.flac
    12:54.46      136641836 B   ---   --   ---xx   flac  0.6198  19 Playing In The Band.flac
    19:06.01      202156796 B   ---   --   ---xx   flac  0.5948  20 Drums.flac
    19:31.20      206611484 B   ---   --   ---xx   flac  0.5998  21 Not Fade Away.flac
     9:40.48      102424940 B   ---   --   ---xx   flac  0.6180  22 Around And Around.flac
     3:11.51       33812396 B   ---   --   ---xx   flac  0.5593  23 Tuning.flac
    11:18.32      119674508 B   ---   --   ---xx   flac  0.6200  24 Dark Star.flac
     4:48.18       50845580 B   ---   --   ---xx   flac  0.6281  25 The Other One.flac
     0:57.47       10165388 B   ---   --   ---xx   flac  0.5962  26 Dark Star.flac
    11:12.19      118585532 B   ---   --   ---xx   flac  0.6014  27 Wharf Rat.flac
     7:47.16       82416476 B   ---   --   ---xx   flac  0.6102  28 Saint Stephen.flac
     9:36.29      101674652 B   ---   --   ---xx   flac  0.6291  29 Good Lovin'.flac
    17:02.47      180391388 B   ---   --   ---xx   flac  0.6194  30 Encore Break.flac
     5:13.67       55370828 B   ---   --   ---xx   flac  0.6329  31 Casey Jones.flac
     5:05.61       53945516 B   ---   --   ---xx   flac  0.6453  32 Johnny B Goode.flac
    11:39.47      123414188 B   ---   --   ---xx   flac  0.5712  33 Post-Show House Music.flac
     5:39.40       59893724 B   ---   --   ---xx   flac  0.5341  34 And We Bid You Goodnight.flac
   294:33.23     3117572792 B                            0.6040  (34 files)


01 Tuning.flac:9b05c7dc4c219407663e022f372b6b37
02 Midnight Madness.flac:1b7e9e681ea362b7e54fea7c003b6b2a
03 Sugar Magnolia.flac:850d649b31fd7eb8d02d5d1581952821
04 Scarlet Begonias.flac:d70a393ad1e0db8c78c51a897a98c574
05 Fire On The Mountain.flac:5ec2f3ef266ad2f09300a33cc210ce39
06 Equipment Break.flac:0a1088feffacfc3364f83eea24259bcb
07 Me And My Uncle.flac:02f7e9beafabb25b7fb6499b4969c3a6
08 Big River.flac:a1479ad2c2ad387ec119127411de4971
09 Friend Of The Devil.flac:3b946f677bf34a3875eb84476c3bf427
10 It's All Over Now.flac:daadee36809796a7e0cbd676ed3091bc
11 Stagger Lee.flac:a64bd9f1839c5a6680618b1089eb6d9d
12 From The Heart Of Me.flac:1d432e116b7fb7a7615254944da0a985
13 Sunshine Daydream.flac:43a13a69bdb76d219ee0583d010eee24
14 Tuning.flac:c7e8025daa9ef63d9fb795cdad97bfb3
15 Samson And Delilah.flac:6099275956688277edce3dcf639a09c1
16 Ramble On Rose.flac:dd3c9d76f5604e99dd738b77540fb406
17 I Need A Miracle.flac:65dced4ff03eaed0966f5ae31f715415
18 Terrapin Station.flac:7ce7c6013a3e7c7ffd0d4aece6fd25b9
19 Playing In The Band.flac:e6f6188dd4e93f3d754ef555f8172eb1
20 Drums.flac:47ae884aaa0da6aae06db26064fe154c
21 Not Fade Away.flac:2dea96de6b12267d3fb98d1a5dcac2d1
22 Around And Around.flac:eec1aed3499889fb2a9aa6986d015140
23 Tuning.flac:8f7162cfca684c41c64a105ad99cce31
24 Dark Star.flac:f28ef8b3c9cad5dd9152419467703da4
25 The Other One.flac:dc3e791ff0c43c008f298d8d18f9fc23
26 Dark Star.flac:c6a01a5c1c4f39ff3cf352342523acb1
27 Wharf Rat.flac:33bb961d204580fff85f6b571ac79009
28 Saint Stephen.flac:a854537c5a7e11ca7095f77705e77075
29 Good Lovin'.flac:fd5cbabb5cb616ed3af0e5bdc9304f0d
30 Encore Break.flac:6846d1a05afa75535fe514caa6685939
31 Casey Jones.flac:009f55634c08ab6e374d9ee0bebc0d7a
32 Johnny B Goode.flac:aef89cafbeb80ea530be86be2056fc7e
33 Post-Show House Music.flac:406a74efcd426c4839f088ca4bacb279
34 And We Bid You Goodnight.flac:275d94f2a014435dac5ac076f9b46b43
5bc9c551c369dbb939c622dd6aa29ccd *01 Tuning.flac
30180cc4c16580199bbb87b2d001f464 *02 Midnight Madness.flac
d729f08efd1606133e00192c58100236 *03 Sugar Magnolia.flac
9ed10bf29bc6577e644d25af4dfa0886 *04 Scarlet Begonias.flac
a875b8cf4a0b1eb730255c5477811765 *05 Fire On The Mountain.flac
fb6f2a1ac7aedcb277856d0e0c6fc4b3 *06 Equipment Break.flac
2ae5ff95a711ddca7a52169cf3775dae *07 Me And My Uncle.flac
9f94aa4ec63a0d568297632bfe63fce8 *08 Big River.flac
cada41eb6dc34de80c43aa4aa1c5c9b7 *09 Friend Of The Devil.flac
5d8f7a7592ff497631b8e63ec620aa25 *10 It's All Over Now.flac
d6db3d08372266b6bd30cc963484e75f *11 Stagger Lee.flac
5a8a6731e16690b10f492b7a18e970d0 *12 From The Heart Of Me.flac
22d943b6df4b11405a6cad5a4c5e5ed6 *13 Sunshine Daydream.flac
ad7088778e121a301849a3a0b3cde562 *14 Tuning.flac
b68ac4a50e95c72599fc79f084d2b0fa *15 Samson And Delilah.flac
dc376cf5bf1e56d4a61ffd962aa44541 *16 Ramble On Rose.flac
43704498b0e7dd0e47c6dbfcc653de25 *17 I Need A Miracle.flac
191634dcb6cff9a627bfc30be0642794 *18 Terrapin Station.flac
a9eaea38232fcc8468540d9b55de88c5 *19 Playing In The Band.flac
24f752c7a64eae4c6e0815e560a5e6d3 *20 Drums.flac
1557c486ec4d3c71bc31d1b86e63f9f1 *21 Not Fade Away.flac
3002340d7c232468400797d9aa68a577 *22 Around And Around.flac
7d8deb19466094bd64b7b704461d3fa2 *23 Tuning.flac
63d400b43d266217f504b783d83886a0 *24 Dark Star.flac
a89a0d89b786fa01f248e53f69a684f9 *25 The Other One.flac
5f49e770c592e048e9c31f3f2a8b488f *26 Dark Star.flac
a3f22d460f8860d40d0b974870828c6f *27 Wharf Rat.flac
f14b92a65b28af2d46dccbc4f2660421 *28 Saint Stephen.flac
9386acd1735d9f14925b38633d0e0663 *29 Good Lovin'.flac
167bd2a71ee789ca99a976927f7dce16 *30 Encore Break.flac
fbd25e4ab50f47d21eaac99c6a50eff0 *31 Casey Jones.flac
4a6ac5ed6465ee78461d2f1d0922ca17 *32 Johnny B Goode.flac
7525653d6286ccedb0f34e9f02166417 *33 Post-Show House Music.flac
713344028a7efbf77f9eb88229645ced *34 And We Bid You Goodnight.flac

Comments
etreedb.org
For administrative requests email contact@etreedb.org
This website written by Tom H Anderson and maintained by the etreedb.org community.

Cached: Tue, 20 Oct 2020 21:18:11 EDT