Grateful Dead 12/31/78
Winterland Arena, San Francisco, CA
Source Summary
flac24 Recording Info: AKG 414 (Omni) > Cassette Master (Nakamichi 550/Maxell UDXLI) Recorded front row center balcony by Dennis Koda Transfer Info: Cassette Master (Nakamichi CR-7A) > Tascam DA-3000 (DSF 1-bit/5.6MHz) > Sound Forge Pro 13 > Adobe Audition 2020 > Samplitude Pro X5 Suite > FLAC/24. All Transfers and Mastering by Charlie Miller
Grateful Dead - December 31, 1978
Winterland Arena - San Francisco, CA

Recording Info:
AKG 414 (Omni) > Cassette Master (Nakamichi 550/Maxell UDXLI)

Transfer Info:
Cassette Master (Nakamichi CR-7A) > Tascam DA-3000 (DSF 1-bit/5.6MHz) >
Sound Forge Pro 13 > Adobe Audition 2020 > Samplitude Pro X5 Suite > FLAC/24
(2 DVD's FLAC)

Patch Info:
Sony ECM-270 > Cassette Master (shnid=145356) supplies:
Fire On The Mountain (12:42 - 13:30)
It's All Over Now (7:18 - 7:53)
Tuning (0:00 - 0:12)
Ramble On Rose (7:07 - 9:49)
Playing In The Band (10:31 - 10:46)
Around And Around (0:00 - 0:05)
Good Lovin' (5:02 - 5:09)
Encore Break (4:33 - end of track)
Casey Jones (0:00 - 0:36)
And We Bid You Goodnight (complete track)

All Transfers and Mastering by Charlie Miller
charliemiller87@earthlink.net
September 13, 2020

Notes:
-- Recorded front row center balcony by Dennis Koda
-- Thanks to Mark Severson and Scott Clugston for the patch source
-- I Need A Miracle with Matthew Kelly
-- Drums with Lee Oskar
-- Not Fade Away and Around And Around with John Cipollina

Set 1:
01 - Tuning
02 - Midnight Madness
03 - Sugar Magnolia >
04 - Scarlet Begonias >
05 - Fire On The Mountain
06 - Equipment Break
07 - Me And My Uncle >
08 - Big River
09 - Friend Of The Devil
10 - It's All Over Now
11 - Stagger Lee
12 - From The Heart Of Me >
13 - Sunshine Daydream

Set 2:
14 - Tuning
15 - Samson And Delilah
16 - Ramble On Rose
17 - I Need A Miracle >
18 - Terrapin Station >
19 - Playing In The Band >
20 - Drums >
21 - Not Fade Away >
22 - Around And Around

Set 3:
23 - Tuning
24 - Dark Star >
25 - The Other One >
26 - Dark Star >
27 - Wharf Rat >
28 - St. Stephen >
29 - Good Lovin'

Encore:
30 - Encore Break
31 - Casey Jones >
32 - Johnny B. Goode
33 - Post-Show House Music
34 - And We Bid You Goodnight


SHNTOOL OUTPUT:
    length     expanded size    cdr  WAVE problems  fmt   ratio  filename
     5:57.035     205651946 B   cxx   --   ---xx   flac  0.6856  01 Tuning.flac
     2:04.855      71916668 B   cxx   --   ---xx   flac  0.7017  02 Midnight Madness.flac
     5:50.739     202025582 B   cxx   --   ---xx   flac  0.6935  03 Sugar Magnolia.flac
    11:52.700     410515304 B   cxx   --   ---xx   flac  0.6817  04 Scarlet Begonias.flac
    13:40.845     472806584 B   cxx   --   ---xx   flac  0.6878  05 Fire On The Mountain.flac
     4:05.553     141438410 B   cxx   --   ---xx   flac  0.6727  06 Equipment Break.flac
     3:06.965     107692130 B   cxx   --   ---xx   flac  0.6926  07 Me And My Uncle.flac
     8:10.801     282701618 B   cxx   --   ---xx   flac  0.6944  08 Big River.flac
    12:30.016     432009056 B   cxx   --   ---xx   flac  0.6797  09 Friend Of The Devil.flac
    10:51.066     375014216 B   cxx   --   ---xx   flac  0.6834  10 It's All Over Now.flac
     9:20.838     323042540 B   cxx   --   ---xx   flac  0.6948  11 Stagger Lee.flac
     3:45.247     129742508 B   cxx   --   ---xx   flac  0.7207  12 From The Heart Of Me.flac
     3:11.049     110044514 B   cxx   --   ---xx   flac  0.6916  13 Sunshine Daydream.flac
     1:02.855      36204374 B   cxx   --   ---xx   flac  0.6626  14 Tuning.flac
     9:25.525     325742498 B   cxx   --   ---xx   flac  0.6845  15 Samson And Delilah.flac
    11:22.252     392977178 B   cxx   --   ---xx   flac  0.6799  16 Ramble On Rose.flac
    11:09.225     385473728 B   cxx   --   ---xx   flac  0.6884  17 I Need A Miracle.flac
    12:19.896     426180068 B   cxx   --   ---xx   flac  0.6718  18 Terrapin Station.flac
    12:54.612     446176352 B   cxx   --   ---xx   flac  0.6947  19 Playing In The Band.flac
    19:06.015     660104456 B   cxx   --   ---xx   flac  0.6880  20 Drums.flac
    19:31.265     674648426 B   cxx   --   ---xx   flac  0.6812  21 Not Fade Away.flac
     9:40.638     334447412 B   cxx   --   ---xx   flac  0.6849  22 Around And Around.flac
     3:11.684     110410196 B   cxx   --   ---xx   flac  0.6797  23 Tuning.flac
    11:18.427     390773954 B   cxx   --   ---xx   flac  0.6989  24 Dark Star.flac
     4:48.240     166026518 B   cxx   --   ---xx   flac  0.6990  25 The Other One.flac
     0:57.625      33192308 B   cxx   --   ---xx   flac  0.6897  26 Dark Star.flac
    11:12.248     387214970 B   cxx   --   ---xx   flac  0.6934  27 Wharf Rat.flac
     7:47.223     269120390 B   cxx   --   ---xx   flac  0.6880  28 Saint Stephen.flac
     9:36.386     331998434 B   cxx   --   ---xx   flac  0.6900  29 Good Lovin'.flac
    17:02.619     589028552 B   cxx   --   ---xx   flac  0.7017  30 Encore Break.flac
     5:13.893     180802334 B   cxx   --   ---xx   flac  0.7004  31 Casey Jones.flac
     5:05.811     176146928 B   cxx   --   ---xx   flac  0.6954  32 Johnny B Goode.flac
    11:39.629     402986228 B   cxx   --   ---xx   flac  0.6696  33 Post-Show House Music.flac
     5:39.519     195562754 B   cxx   --   ---xx   flac  0.5647  34 And We Bid You Goodnight.flac
   294:33.295   10179819134 B                            0.6854  (34 files)


01 Tuning.flac:cb1edced18de4f1c3dc81799451627df
02 Midnight Madness.flac:94a22fb578ab15fad8184adbe8437af5
03 Sugar Magnolia.flac:252964a0ca399f5d0652a72c9ee91a62
04 Scarlet Begonias.flac:660c8d6036ec485feee076c3a2b373cf
05 Fire On The Mountain.flac:7d223a565505002c669d28a0210599af
06 Equipment Break.flac:efadee52b6764d0c430fda8a988cba08
07 Me And My Uncle.flac:62de694c4a64fbb0f7674a9f38f6ec0a
08 Big River.flac:928d492f8e867e9e3d21e65f4a4f6612
09 Friend Of The Devil.flac:5c22568d7c562274c3de39ad48a603c7
10 It's All Over Now.flac:5109fa30072fbc6b7b2e03ccc8856f1b
11 Stagger Lee.flac:203e595c1717b583f9f0e9744ebf67c8
12 From The Heart Of Me.flac:c282c1ab1680b66c8b9597045aabb4a5
13 Sunshine Daydream.flac:fd6021356b75854ae482e4157ceca9b4
14 Tuning.flac:88923f41c61a77fde76861d84f7f8e37
15 Samson And Delilah.flac:7a09c48ace8a7dc54e632acc29dfdd70
16 Ramble On Rose.flac:51e4ea2ad788167de61a847ea418ffaa
17 I Need A Miracle.flac:fc45763d29db42deb1808e84565e8d7f
18 Terrapin Station.flac:3411e87dd617554eae02cf9a49842ebe
19 Playing In The Band.flac:98a78bda5724f58bd81a0aa5ee88f165
20 Drums.flac:b6a9559391d923b69c255210a60057b3
21 Not Fade Away.flac:9978ad6823dfb32a844fdfc4e751a308
22 Around And Around.flac:993e901a29a424b8cc45b8610e04e3ee
23 Tuning.flac:576158fd42167b893a4a46821dcdb5c3
24 Dark Star.flac:2518f2bdeb37ce19d914aa91eb927233
25 The Other One.flac:18bcf246001e3a1d81d5877f2d849398
26 Dark Star.flac:26804ca4e9a58c3d0956e38e3d36d438
27 Wharf Rat.flac:da67ad8440006cc5e37df7f73e2511a5
28 Saint Stephen.flac:2092919c231b56105959a29ff9eb218d
29 Good Lovin'.flac:8b8669993e874ea21b031469756de703
30 Encore Break.flac:143855f2e2ad24ec88e2d48a790ebe71
31 Casey Jones.flac:ce0a8e90da00be608168de4a230d2505
32 Johnny B Goode.flac:ba6fd20007f2a0b9ec42253148469f4e
33 Post-Show House Music.flac:4636010989ef3e9c76fede670bee7962
34 And We Bid You Goodnight.flac:55e92666ed7bee6003e9b93b60779940
673da1d19da0be0fd227a7eb5a511044 *01 Tuning.flac
9bff52c09c769fd129b0ef3eac3e8188 *02 Midnight Madness.flac
1203bae701da6ad2a55453be7bd839f8 *03 Sugar Magnolia.flac
7a6434514dcbc2704e85798aa7cd18aa *04 Scarlet Begonias.flac
7abf27f7821151e43080302343f03fce *05 Fire On The Mountain.flac
4aab9f32bb39b59280ad88acb8770553 *06 Equipment Break.flac
864557e7e26e5a7ec335df1dfb13ed9d *07 Me And My Uncle.flac
f78c0efffd908df1313804711a223b02 *08 Big River.flac
0042e2fb5ef4c918ff3a2cbc5b164cd0 *09 Friend Of The Devil.flac
f829b57f5332f018922cb5b9a033e8dd *10 It's All Over Now.flac
5b2b793881a358553e1d56f43e32b6db *11 Stagger Lee.flac
0c3bdd3cd0c80d9ccb3ad570a75c6f9e *12 From The Heart Of Me.flac
7efcd12440dc2c9f009f3a739613c6bf *13 Sunshine Daydream.flac
06d6062ffa7706fd50e9853c519ca411 *14 Tuning.flac
c74c6ecd993c572a5b51b07ebca51c88 *15 Samson And Delilah.flac
4ecefeaae879a948aab1af2e3dbd26e9 *16 Ramble On Rose.flac
ba47e9fb0b44bd233d7c959604d415ca *17 I Need A Miracle.flac
cf68b048094784b49223afb8269f06be *18 Terrapin Station.flac
2c3c876b8e40374baa4afe3478c0b683 *19 Playing In The Band.flac
3ad15bcb885a846eb9a77d17235a1e5b *20 Drums.flac
1bd4d83adc5a82f03b13f6db5718a3e7 *21 Not Fade Away.flac
bd4dd82b6bbbbaf34f30938876307ac6 *22 Around And Around.flac
296a9e5f3bc8f29c7e5a7dd025437b33 *23 Tuning.flac
4e41cb1b9a87423d74c80118acbaea4e *24 Dark Star.flac
581bb396bd1f09080a234bb521af06a9 *25 The Other One.flac
ec9bc0e1b7d022c9552e94dd7a335425 *26 Dark Star.flac
a8be4b43fcb61b9e955fc2f5addb80a3 *27 Wharf Rat.flac
ce69319a1ef39bf2d2f94abb71baf5c2 *28 Saint Stephen.flac
5fddbc89c5d900f61dcc25d13d657228 *29 Good Lovin'.flac
40859538b29ed9cdc588c71949176691 *30 Encore Break.flac
863b284477ecaf7734d941c078c4393f *31 Casey Jones.flac
4169517724693eff73b665a8a5674d08 *32 Johnny B Goode.flac
62334b70a9d4dbaf02bd68d42bcbd07d *33 Post-Show House Music.flac
492f75f35950638eb97188d0170836f4 *34 And We Bid You Goodnight.flac

Comments
etreedb.org
For administrative requests email contact@etreedb.org
This website written by Tom H Anderson and maintained by the etreedb.org community.

Cached: Tue, 20 Oct 2020 21:16:19 EDT