Grateful Dead 12/30/78
Pauley Pavilion, UCLA, Los Angeles, CA
Source Summary
flac16; Matrix from: Soundboard (shnid:34261) Recording Info: SBD>Rm>Reel>Cass>Dat; Transfer Info: Dat(Sony R500)>Prodif Plus>Samplitude v6.0>SHN and Audience (shnid:19417) MAR (Taped by Greg Schug, 2 Neumann KM84 mics > Nagra 45 half track, on Maxell UD at 7.5 ips) > Technics 1506 playback > Cardas audiophile cables > HHB CDR 800 master CD > Samsung SW-232B extraction (EAC v0.9 beta 4) > tracking (CD Wave) > sector boundary verification (shntool v1.01) > .shn encoding (mkwACT v0.97 beta 1)
Grateful Dead
December30, 1978
Pauley Pavilion, UCLA
Los Angeles, CA

2 source matrix

Soundboard (shnid:34261)
-------------------------------------------------------------------------------
gd1978-12-30.sbd.miller.tetzeli.fix-18092.34261.reflac.flac16

Fix of shnid 18092

I made the transition between CDs 2 and 3 seamless using CE 2000.
Resulting SBEs were fixed and verified using shntool.  Thanks to
Charlie Miller for providing the overlap between the two CDs that made
this fix possible.  Nonseekable SHNs were converted to FLAC.

Bill Tetzeli (btet@adelphia.net)
4/6/2006
------------------------------------------------------------------------

Recording Info:
SBD>Rm>Reel>Cass>Dat

Transfer Info:
Dat(Sony R500)>Prodif Plus>Samplitude v6.0>SHN
(2 Discs SHN / 3 Discs Audio)

All transfers and edits by Charlie Miller
charliemiller87@earthlink.net
6/16/03

Notes:
-Aud patch supplies last 3 songs
-Most people list this as Rm>PCM>Dat>CD, they are wrong
-Normalized and tracked with Samplitude v6.0


Audience (shnid:19417)
-----------------------------------------------------------------------------------------
gd78-12-30.aud-schug.warner.19417.sbeok.shnf


MAR (Taped by Greg Schug, 2 Neumann KM84 mics > Nagra 45 half track, on Maxell UD at
7.5 ips) > Technics 1506 playback > Cardas audiophile cables > HHB CDR 800 master CD >
Samsung SW-232B extraction (EAC v0.9 beta 4) > tracking (CD Wave) > sector boundary
verification (shntool v1.01) > .shn encoding (mkwACT v0.97 beta 1)

*Master exhibited a right channel dropout, and was patched with a MAC>R>PCM>CD version of
a different (unknown) master, from 6:09 of Ollin Arageed through 1:25 of Saint Stephen.

Uploaded to tol.etree.org 9/7/03

A > D by Steven Martin
Patches and EAC > SHN by Jack Warner (jackmw1ATsbcglobalDOTnet)

----------------------------------------------------------------------------------------
---Thank you Charlie Miller for providing and all your work on the SBD.
---Thank you Bill Tetzeli for reworking the disc change on the SBD.
---Thank you Greg Schug for recording the show.
---Thank you Steven Martin and Jack Warner for your work on the AUD.
---Thanks to germain for everything;seeding,encouragement,advice and tutelage.


Mix Ratio:
SBD -2 db
Aud -8 db
** some minor mix adjustments here and there when needed **

Matrix by dusborne using Adobe Audition CS6 and Audacity 2.0

12-09-2012

------------------------------------------------------------------------------------------

Set 1

s1t01 - Jack Straw
s1t02 - They Love Each Other
s1t03 - Mama Tried ->
s1t04 - Mexicali Blues
s1t05 - Loser
s1t06 - Looks Like Rain
s1t07 - Stagger Lee
s1t08 - Passenger
s1t09 - Tennessee Jed
s1t10 - Minglewood Blues
s1t11 - Sugaree
s1t12 - The Promised Land

Set 2
s2t01 - Tuning
s2t02 - I Need A Miracle ->
s2t03 - Bertha ->
s2t04 - Good Lovin'
s2t05 - Scarlet Begonias ->
s2t06 - Fire On The Mountain
s2t07 - Playing In The Band ->
s2t08 - Shakedown Street ->
s2t09 - Drums ->
s2t10 - Ollin Arrageed* ->
s2t11 - Space ->
s2t12 - Saint Stephen ->
s2t13 - Not Fade Away ->
s2t14 - Goin' Down The Road Feeling Bad ->
s2t15 - Around And Around**

Encore
s2t16 - One More Saturday Night**

* With Hamza el-Din
** With Lee Oskar on harmonica
---------------------------------------------------------------------------------------
Tagging notes:
Show information is embedded within the header of each flac file.
It will display on any player capable of directly playing flac
files. If converted to wav during processing, all tags will be
stripped, however audio data will remain unaffected. If you must
transcode to a lossy format, do so directly Flac > Lossy.
Use ffp to validate audio integrity.
Md5 values will change if tagging is altered.

dusborne 12-09-2012
-----------------------------------------------------------------------------------

length     expanded size    cdr  WAVE problems  fmt   ratio  filename
     8:38.35       91457564 B   ---   --   ---xx   flac  0.6935  gd78-12-30s1t01.flac
     8:34.65       90822524 B   ---   --   ---xx   flac  0.6851  gd78-12-30s1t02.flac
     2:28.06       26121356 B   ---   --   ---xx   flac  0.7154  gd78-12-30s1t03.flac
     5:44.15       60716924 B   ---   --   ---xx   flac  0.6836  gd78-12-30s1t04.flac
     8:59.39       95171372 B   ---   --   ---xx   flac  0.6939  gd78-12-30s1t05.flac
    10:05.15      106757324 B   ---   --   ---xx   flac  0.6974  gd78-12-30s1t06.flac
     7:37.64       80765372 B   ---   --   ---xx   flac  0.6923  gd78-12-30s1t07.flac
     7:39.32       81042908 B   ---   --   ---xx   flac  0.7059  gd78-12-30s1t08.flac
    11:32.21      122118236 B   ---   --   ---xx   flac  0.7036  gd78-12-30s1t09.flac
     7:26.32       78749708 B   ---   --   ---xx   flac  0.7011  gd78-12-30s1t10.flac
    11:54.71      126116636 B   ---   --   ---xx   flac  0.7055  gd78-12-30s1t11.flac
     4:43.62       50067068 B   ---   --   ---xx   flac  0.7380  gd78-12-30s1t12.flac
     1:49.28       19293500 B   ---   --   ---xx   flac  0.5813  gd78-12-30s2t01.flac
     4:18.16       45548876 B   ---   --   ---xx   flac  0.7034  gd78-12-30s2t02.flac
     6:33.14       69358172 B   ---   --   ---xx   flac  0.6995  gd78-12-30s2t03.flac
     9:30.32      100623308 B   ---   --   ---xx   flac  0.6783  gd78-12-30s2t04.flac
     9:52.55      104558204 B   ---   --   ---xx   flac  0.6966  gd78-12-30s2t05.flac
    14:14.55      150775004 B   ---   --   ---xx   flac  0.6593  gd78-12-30s2t06.flac
     7:43.74       81847292 B   ---   --   ---xx   flac  0.6899  gd78-12-30s2t07.flac
     8:48.66       93294476 B   ---   --   ---xx   flac  0.7009  gd78-12-30s2t08.flac
    11:02.58      116913260 B   ---   --   ---xx   flac  0.6827  gd78-12-30s2t09.flac
    13:40.64      144798572 B   ---   --   ---xx   flac  0.6659  gd78-12-30s2t10.flac
     2:05.02       22054748 B   ---   --   ---xx   flac  0.6740  gd78-12-30s2t11.flac
     7:47.59       82517612 B   ---   --   ---xx   flac  0.6928  gd78-12-30s2t12.flac
     7:13.59       76520012 B   ---   --   ---xx   flac  0.6743  gd78-12-30s2t13.flac
     6:26.00       68090444 B   ---   --   ---xx   flac  0.6712  gd78-12-30s2t14.flac
    10:23.70      110061884 B   ---   --   ---xx   flac  0.6707  gd78-12-30s2t15.flac
     4:41.32       49643708 B   ---   --   ---xx   flac  0.7077  gd78-12-30s2t16.flac
   221:38.16     2345806064 B                            0.6885  (28 files)


02295d4134560b482758bfef002aa1ec *gd78-12-30s1t01.flac
0c4e30e839a6383687de39617e4c29f6 *gd78-12-30s1t02.flac
85a510f05aea399bac47048fb4e3342b *gd78-12-30s1t03.flac
5075f0bdc7d35ab158af86a6a012b674 *gd78-12-30s1t04.flac
77f90b2760531c4fcb654bf1b5d2dd11 *gd78-12-30s1t05.flac
972e9a971596cfda1f53255b22ec51a0 *gd78-12-30s1t06.flac
e15b186a30c57a74a255df8a26d8a57d *gd78-12-30s1t07.flac
9e8c175ea4459411cb9f7b7812720397 *gd78-12-30s1t08.flac
769d6679f2134340c7b9fb898f79ed85 *gd78-12-30s1t09.flac
267eb1d598d27da8329769bb56c84325 *gd78-12-30s1t10.flac
b320ccdad35e746a0ccb3c6783811f33 *gd78-12-30s1t11.flac
1a60066ac5943d9485e45c39a3be8c75 *gd78-12-30s1t12.flac
300f0f2784b652221c1f2e00d7e8fcda *gd78-12-30s2t01.flac
dec91cb5ce3a22195547204162f85518 *gd78-12-30s2t02.flac
5ccdfc441606ca372096dc411a2b496e *gd78-12-30s2t03.flac
2d649d659be6c8d9ea999f8ace7c68fe *gd78-12-30s2t04.flac
016edc70251f850c02f1cdb715d2bc4e *gd78-12-30s2t05.flac
31fa20a9e18dee56592a51ac4e49261a *gd78-12-30s2t06.flac
65300cb039442fb6a26d5cc307258c86 *gd78-12-30s2t07.flac
ccb7dc1ccce6ba61c61963f30f3f7c38 *gd78-12-30s2t08.flac
d6cdca9ea91cabf02e30c0edf3d2a976 *gd78-12-30s2t09.flac
4718d29e465bbf3c0cea134a556c39b4 *gd78-12-30s2t10.flac
0dbfb7d7de1fb9b8dc965c1474dcb96a *gd78-12-30s2t11.flac
38f3a318db8b7340353ef995618d9893 *gd78-12-30s2t12.flac
539278f46ae94854a55acec37153d953 *gd78-12-30s2t13.flac
5adaa91dacf3a865f65cbb28f1e50537 *gd78-12-30s2t14.flac
56af98afeffe46cbcc5c4beab4fb9f4c *gd78-12-30s2t15.flac
7138b9f84512a342632d8a1b954d181a *gd78-12-30s2t16.flac
ffp
gd78-12-30s1t01.flac:6baf202b497dc9408cb95bc1599d38f2
gd78-12-30s1t02.flac:183fa152d3e858e6dfd7ec7771f809f6
gd78-12-30s1t03.flac:ba60cd038c5f82036d812371dc246237
gd78-12-30s1t04.flac:9290df4d21d1cabdd5ee1f12248f275d
gd78-12-30s1t05.flac:4a978c7ea6264b8044655f5654733293
gd78-12-30s1t06.flac:a675871911a54aa181e2fb2b0ad823c9
gd78-12-30s1t07.flac:8fac44a6038362a6fa83f9eadef18307
gd78-12-30s1t08.flac:ee8eb485c00626c4eec0e2ad5404339f
gd78-12-30s1t09.flac:d2a6afd9787f651b866eb893ca4a48b0
gd78-12-30s1t10.flac:99aca4391f4fca4a7273c9b5ba668c27
gd78-12-30s1t11.flac:c47c06166dc4a641421086ea71220879
gd78-12-30s1t12.flac:7c57ed5a7650ce1105fe24a8717b3663
gd78-12-30s2t01.flac:81027908e6324818f5109a91831ba0e0
gd78-12-30s2t02.flac:f5750918e7342aadef90fd4316af3247
gd78-12-30s2t03.flac:a0da1e38c0950fdb052fcf2bfd3d176b
gd78-12-30s2t04.flac:262a06df33671dd0c5841a1026c4ef15
gd78-12-30s2t05.flac:5bc0b2af6f1f2c086caa8c1f284e3b1a
gd78-12-30s2t06.flac:abdd65dc9c34b682d78b7bb490cabee1
gd78-12-30s2t07.flac:04635dcea98ad33c2a2e2492c7854553
gd78-12-30s2t08.flac:7da9e7ee6c0bf5dfdec03ea46c1658c2
gd78-12-30s2t09.flac:00e8ee1aa0f1f9b8028f8989ae86c5ca
gd78-12-30s2t10.flac:09dd5cadea5b1f5ecbb4e2d62922c0d2
gd78-12-30s2t11.flac:4213dc4f91ca148141518f6f1de08780
gd78-12-30s2t12.flac:390029d9493345a05bb92b519e6ab193
gd78-12-30s2t13.flac:5718259b30bb12ff853d787372093b7a
gd78-12-30s2t14.flac:cc7a9d998e66f5bd5dc8d5eaa2ab63dc
gd78-12-30s2t15.flac:afb92b0025b09df3c88e751d3af4747e
gd78-12-30s2t16.flac:f75276701835de3a2290df69c3b54ef8

Comments
etreedb.org
For administrative requests email contact@etreedb.org
This website written by Tom H Anderson and maintained by the etreedb.org community.

Cached: Sat, 19 Oct 2019 16:41:21 EDT