Grateful Dead 12/30/78
Pauley Pavilion, UCLA, Los Angeles, CA
Source Summary
flac24; Mark Severson's Master Audience Cassettes; Sony ECM-270 mics (left side, first row of seats above bleachers next to railing, even with the soundboard) > Sony TC-158SD (TDK SA-C90); Transfer Info: Master Cassettes (Nakamichi DR-1)> Tascam DA-3000 (DSF 1-bit/5.6 MHz) > dBpoweramp 24/96 > Adobe Audition CC 2019 > TLH flac2496
Grateful Dead
Pauley Pavilion
University of California
Los Angeles, CA
Saturday  December 30th, 1978

Source Info:
Mark Severson's Master Audience Cassettes; Sony ECM-270 mics (left side, first row of seats above bleachers next to railing, even with the soundboard) > Sony TC-158SD (TDK SA-C90)

Transfer Info:
Master Cassettes (Nakamichi DR-1)> Tascam DA-3000 (DSF 1-bit/5.6 MHz) > dBpoweramp 24/96 > Adobe Audition CC 2019 > TLH flac2496

Notes:
- Thanks to Mark Severson for the master cassettes
- Thanks to Charlie Miller for the transfer and coordinating this effort
- Thanks to Greg Schug, Steve Martin and Jack Warner for the shnid19417 Neumann SM69 source which supplies a 0:14 patch in "Fire On The Mountain"
- Thanks to Sandy Troy, Matt Smith, Charlie Miller and SirMick for the shnid137675 Neumann KM88 source which supplies a 0:12 patch in "Ollin Arrageed"
- Ollin Arrageed with Hamza el-Din
- Pitch corrected

Mastered by Scott Clugston
February 2019

Set One:
s1t01 - Crowd
s1t02 - Jack Straw
s1t03 - They Love Each Other
s1t04 - Mama Tried >
s1t05 - Mexicali Blues
s1t06 - Loser
s1t07 - Looks Like Rain
s1t08 - Stagger Lee
s1t09 - Passenger
s1t10 - Tennessee Jed
s1t11 - New Minglewood Blues
s1t12 - Sugaree
s1t13 - Promised Land

Set Two:
s2t01 - Crowd
s2t02 - I Need A Miracle >
s2t03 - Bertha >
s2t04 - Good Lovin'
s2t05 - Scarlet Begonias >
s2t06 - Fire On The Mountain
s2t07 - Playin' In The Band >
s2t08 - Shakedown Street >
s2t09 - Drums >
s2t10 - Ollin Arrageed >
s2t11 - Space >
s2t12 - St. Stephen >
s2t13 - Not Fade Away >
s2t14 - Goin' Down The Road Feeling Bad >
s2t15 - Around & Around
s2t16 - Encore Break
s2t17 - One More Saturday Night

    length     expanded size    cdr  WAVE problems  fmt   ratio  filename
     1:04.627      37225004 B   cxx   --   ---xx   flac  0.7191  gd78-12-30 s1t01 Crowd.flac
     6:13.360     215055404 B   cxx   --   ---xx   flac  0.7126  gd78-12-30 s1t02 Jack Straw.flac
     8:26.573     291786284 B   cxx   --   ---xx   flac  0.6904  gd78-12-30 s1t03 They Love Each Other.flac
     2:27.133      84748844 B   cxx   --   ---xx   flac  0.6973  gd78-12-30 s1t04 Mama Tried.flac
     5:39.920     195793964 B   cxx   --   ---xx   flac  0.6861  gd78-12-30 s1t05 Mexicali Blues.flac
     8:45.147     302484524 B   cxx   --   ---xx   flac  0.6831  gd78-12-30 s1t06 Loser.flac
    10:07.600     349977644 B   cxx   --   ---xx   flac  0.6803  gd78-12-30 s1t07 Looks Like Rain.flac
     7:22.347     254791724 B   cxx   --   ---xx   flac  0.6860  gd78-12-30 s1t08 Stagger Lee.flac
     7:36.587     262993964 B   cxx   --   ---xx   flac  0.6849  gd78-12-30 s1t09 Passenger.flac
    11:26.747     395566124 B   cxx   --   ---xx   flac  0.6836  gd78-12-30 s1t10 Tennessee Jed.flac
     7:27.880     257978924 B   cxx   --   ---xx   flac  0.6855  gd78-12-30 s1t11 New Minglewood Blues.flac
    11:20.080     391726124 B   cxx   --   ---xx   flac  0.6859  gd78-12-30 s1t12 Sugaree.flac
     4:52.740     168618368 B   cxx   --   ---xx   flac  0.6990  gd78-12-30 s1t13 Promised Land.flac
     1:49.787      63237164 B   cxx   --   ---xx   flac  0.6700  gd78-12-30 s2t01 Crowd.flac
     4:15.827     147356204 B   cxx   --   ---xx   flac  0.6962  gd78-12-30 s2t02 I Need A Miracle.flac
     6:35.920     228049964 B   cxx   --   ---xx   flac  0.6981  gd78-12-30 s2t03 Bertha.flac
     9:42.347     335431724 B   cxx   --   ---xx   flac  0.6924  gd78-12-30 s2t04 Good Lovin'.flac
     9:38.587     333265964 B   cxx   --   ---xx   flac  0.6936  gd78-12-30 s2t05 Scarlet Begonias.flac
    14:54.107     515005484 B   cxx   --   ---xx   flac  0.6818  gd78-12-30 s2t06 Fire On The Mountain.flac
     7:34.267     261657644 B   cxx   --   ---xx   flac  0.6895  gd78-12-30 s2t07 Playin' In The Band.flac
     8:58.707     310295084 B   cxx   --   ---xx   flac  0.6923  gd78-12-30 s2t08 Shakedown Street.flac
    10:55.093     377333804 B   cxx   --   ---xx   flac  0.6845  gd78-12-30 s2t09 Drums.flac
    14:02.213     485114924 B   cxx   --   ---xx   flac  0.6790  gd78-12-30 s2t10 Ollin Arrageed.flac
     2:02.013      70279724 B   cxx   --   ---xx   flac  0.6736  gd78-12-30 s2t11 Space.flac
     7:48.600     269913644 B   cxx   --   ---xx   flac  0.6865  gd78-12-30 s2t12 St. Stephen.flac
     7:16.720     251550764 B   cxx   --   ---xx   flac  0.6893  gd78-12-30 s2t13 Not Fade Away.flac
     6:24.773     221629484 B   cxx   --   ---xx   flac  0.6880  gd78-12-30 s2t14 Goin' Down The Road.flac
     9:19.653     322360364 B   cxx   --   ---xx   flac  0.6913  gd78-12-30 s2t15 Around & Around.flac
     1:16.083      43823582 B   cxx   --   ---xx   flac  0.6700  gd78-12-30 s2t16 Encore Break.flac
     5:01.703     173781086 B   cxx   --   ---xx   flac  0.6884  gd78-12-30 s2t17 One More Saturday Night.flac
   220:27.139    7618833504 B                            0.6878  (30 files)


46768f3dcc6abbe9e572508e385f7e08 *gd78-12-30 s1t01 Crowd.flac
849e9c11bd81677fc762eef8f581a77e *gd78-12-30 s1t02 Jack Straw.flac
1cf9bf58b6995e76860b0b8549e024f8 *gd78-12-30 s1t03 They Love Each Other.flac
9e71742bc0e3f4e44f17df2a1ff56175 *gd78-12-30 s1t04 Mama Tried.flac
f59a7f0e35419ee18ac617135f99748e *gd78-12-30 s1t05 Mexicali Blues.flac
2510a8cda0d2cc9129e21d70c4d25f08 *gd78-12-30 s1t06 Loser.flac
d47fe33967b6b397d1a010e08f19b240 *gd78-12-30 s1t07 Looks Like Rain.flac
d9b3816926cbc7948f14287bf84a59ac *gd78-12-30 s1t08 Stagger Lee.flac
e02d5c01664c11a5ff7dc13ba0b141d7 *gd78-12-30 s1t09 Passenger.flac
6310abfe1b8fc1ab9d0a3d28c160e6f4 *gd78-12-30 s1t10 Tennessee Jed.flac
cc1213a3d8748b800b1c9b2f313a3c83 *gd78-12-30 s1t11 New Minglewood Blues.flac
9a1b8a305253e29f81ccf25ec9c74b88 *gd78-12-30 s1t12 Sugaree.flac
d1afbf4c0aa750baafbc3890577f6773 *gd78-12-30 s1t13 Promised Land.flac
4f813fe584fc91a984a7d02b3cc7c43a *gd78-12-30 s2t01 Crowd.flac
a8c126188aabeeeca287199d5a7c29d9 *gd78-12-30 s2t02 I Need A Miracle.flac
fb3e65cbb261e77a08312e3d5d6f428f *gd78-12-30 s2t03 Bertha.flac
5e877ad0a26adbede58fa4ce98be32f6 *gd78-12-30 s2t04 Good Lovin'.flac
12519e6d7e6427c718a6071391f43cd9 *gd78-12-30 s2t05 Scarlet Begonias.flac
672c667f409d3fa5767343a9ebd8638e *gd78-12-30 s2t06 Fire On The Mountain.flac
93759f4303cbc9f37943fd20a4a732c9 *gd78-12-30 s2t07 Playin' In The Band.flac
fb69ca7bfaa6c58548c681443c884306 *gd78-12-30 s2t08 Shakedown Street.flac
a38db1435f23be7fa875c9f56577bedf *gd78-12-30 s2t09 Drums.flac
0ba38b6f67950358e1a09f2d043a406b *gd78-12-30 s2t10 Ollin Arrageed.flac
75740fc0191f90214b3e50aded0e4cbe *gd78-12-30 s2t11 Space.flac
88aeecca72abe8b8355146d5806a4694 *gd78-12-30 s2t12 St. Stephen.flac
0b7b59825f936d92e3a12e5dfaca0070 *gd78-12-30 s2t13 Not Fade Away.flac
e0db6de62f20a419b3bf9a1183778802 *gd78-12-30 s2t14 Goin' Down The Road.flac
c94c7d0da9d6d51e60e96346e5c1b90b *gd78-12-30 s2t15 Around & Around.flac
a62e341ebfb571ad2fa14099464ab734 *gd78-12-30 s2t16 Encore Break.flac
436b32041009bb24615682f85d8321a9 *gd78-12-30 s2t17 One More Saturday Night.flac
ffp
gd78-12-30 s1t01 Crowd.flac:62a843aca5532fe2744f50484e12d14c
gd78-12-30 s1t02 Jack Straw.flac:3fb11ead0b611d1dae58fc4d84a8a027
gd78-12-30 s1t03 They Love Each Other.flac:b71924df9a2e62ebbff728bb3da822b0
gd78-12-30 s1t04 Mama Tried.flac:34fd09a4b7a3fda8a695bf59c05987be
gd78-12-30 s1t05 Mexicali Blues.flac:1f1f1a09cc9b76f857c42203fe76c95a
gd78-12-30 s1t06 Loser.flac:63f9ac69b069b68f2b62aad04f249024
gd78-12-30 s1t07 Looks Like Rain.flac:366c0a331d0fbe0c5fc9c7b36878246a
gd78-12-30 s1t08 Stagger Lee.flac:d06f1cf80ec7aecb7797c9f4892a2a70
gd78-12-30 s1t09 Passenger.flac:44405d3ddf1f529c10e95b970ee3979e
gd78-12-30 s1t10 Tennessee Jed.flac:b8ca4b47a9061220143a68c1067f99ad
gd78-12-30 s1t11 New Minglewood Blues.flac:d2fb1a3ef7f4386c5df47f37ac447abc
gd78-12-30 s1t12 Sugaree.flac:cf07722be8bcae1bc60956f29d3dccfc
gd78-12-30 s1t13 Promised Land.flac:c814c2835956b499bef45d9c02e03e8d
gd78-12-30 s2t01 Crowd.flac:60dd253c4a65d5a80c1412f6d488d046
gd78-12-30 s2t02 I Need A Miracle.flac:ae912061115acecd2f3cc2ff110cad52
gd78-12-30 s2t03 Bertha.flac:3a36c6b18dba0a616ad57a3468a8ae57
gd78-12-30 s2t04 Good Lovin'.flac:4ee36f78cab19c9614314700c9333310
gd78-12-30 s2t05 Scarlet Begonias.flac:26b10fe683c902225237be8998ff34c3
gd78-12-30 s2t06 Fire On The Mountain.flac:77936a889968b56ef782421d67887bb9
gd78-12-30 s2t07 Playin' In The Band.flac:a98d6c95731a12235380daa62fa274ca
gd78-12-30 s2t08 Shakedown Street.flac:cd2de5c8308893efa072955bc522e7f7
gd78-12-30 s2t09 Drums.flac:22cb5adecded4140281ae03981f944b9
gd78-12-30 s2t10 Ollin Arrageed.flac:b51a8855eacf6253f332087491aba406
gd78-12-30 s2t11 Space.flac:b7a6239c3aed3bedb6bb5a1bab745f34
gd78-12-30 s2t12 St. Stephen.flac:0871ca45316dd1ab2c6d3da99ecc0767
gd78-12-30 s2t13 Not Fade Away.flac:e2b8213adae97ec993248aca7d640557
gd78-12-30 s2t14 Goin' Down The Road.flac:339c7dfaea8242aed4edcc12f6610b1f
gd78-12-30 s2t15 Around & Around.flac:78dcc48cac3ea2a89bf50c5f92a503f1
gd78-12-30 s2t16 Encore Break.flac:e6e0d4714c37843faa11a14726c55f06
gd78-12-30 s2t17 One More Saturday Night.flac:5102013793745654fcefdc427053e4b9

Comments
etreedb.org
For administrative requests email contact@etreedb.org
This website written by Tom H Anderson and maintained by the etreedb.org community.

Cached: Wed, 18 Sep 2019 12:35:48 EDT